<?xml version="1.0" standalone="no"?>
<!DOCTYPE svg PUBLIC "-//W3C//DTD SVG 1.1//EN" "http://www.w3.org/Graphics/SVG/1.1/DTD/svg11.dtd" >
<svg xmlns="http://www.w3.org/2000/svg">
<metadata>Generated by IcoMoon</metadata>
<defs>
<font id="icomoon" horiz-adv-x="1024">
<font-face units-per-em="1024" ascent="960" descent="-64" />
<missing-glyph horiz-adv-x="1024" />
<glyph unicode="&#x20;" horiz-adv-x="512" d="" />
<glyph unicode="&#xe900;" glyph-name="pin" d="M801.485 688.531c-49.134 95.379-142.244 162.078-251.791 173.509l-1.38 0.117c-10.887 1.157-23.519 1.817-36.306 1.817s-25.418-0.66-37.864-1.947l1.558 0.131c-110.925-11.555-204.034-78.243-252.347-171.82l-0.84-1.79c-23.048-45.079-36.555-98.333-36.555-154.741 0-86.532 31.784-165.64 84.314-226.288l-0.367 0.433 217.373-264.282c5.913-7.155 14.788-11.68 24.72-11.68s18.807 4.525 24.677 11.626l0.043 0.054 217.373 264.282c52.162 60.211 83.946 139.316 83.946 225.845 0 56.406-13.506 109.657-37.461 156.697l0.907-1.962zM512 416c-70.692 0-128 57.308-128 128s57.308 128 128 128c70.692 0 128-57.308 128-128v0c-0.086-70.658-57.342-127.914-127.992-128h-0.008z" />
<glyph unicode="&#xe901;" glyph-name="sprout" d="M319.922 510.371c-31.341 25.6-63.147 61.44-92.005 112.019-8.068 13.964-22.962 22.652-39.253 22.652-7.758 0-15.515-2.172-22.342-6.051-21.721-12.257-29.168-39.874-16.912-61.595 32.582-57.406 68.732-99.762 105.038-131.258-7.447-2.482-15.825-4.034-24.359-4.81-48.562-4.499-95.884 17.067-126.759 57.716-59.423 78.352-51.51 201.232-44.373 254.914 32.427-22.032 78.352-32.272 85.023-33.513 36.926-7.292 69.508-20.79 90.453-30.875 39.408-18.928 69.198-50.89 83.937-89.988 12.102-31.496 12.567-61.595 1.552-89.212zM757.45 141.265l-25.445 15.205c-36.926 22.032-82.696 22.187-119.622 0l-25.29-15.205c-46.39-27.927-104.107-27.927-150.652 0l-25.29 15.205c-36.926 22.187-82.696 22.187-119.622 0l-25.29-15.205c-46.39-27.927-104.262-27.927-150.652 0l-69.973 42.046v-185.872h932.461v185.872l-70.128-42.046c-46.39-27.927-104.107-27.927-150.497 0zM139.171 26.919c-8.378 0-15.050 6.672-15.050 15.050s6.672 15.050 15.050 15.050 15.050-6.672 15.050-15.050-6.827-15.050-15.050-15.050zM224.504 57.018c-8.378 0-15.050 6.672-15.050 15.050s6.672 15.050 15.050 15.050 15.050-6.672 15.050-15.050-6.827-15.050-15.050-15.050zM325.973 26.919c-8.378 0-15.050 6.672-15.050 15.050s6.672 15.050 15.050 15.050 15.050-6.672 15.050-15.050-6.672-15.050-15.050-15.050zM445.13 57.018c-8.378 0-15.050 6.672-15.050 15.050s6.672 15.050 15.050 15.050 15.050-6.672 15.050-15.050-6.672-15.050-15.050-15.050zM535.428 19.937c-8.378 0-15.050 6.672-15.050 15.050s6.672 15.050 15.050 15.050 15.050-6.672 15.050-15.050c0-8.223-6.672-15.050-15.050-15.050zM633.018 72.068c-8.378 0-15.050 6.672-15.050 15.050s6.672 15.050 15.050 15.050 15.050-6.672 15.050-15.050-6.827-15.050-15.050-15.050zM741.314 34.987c-8.378 0-15.050 6.672-15.050 15.050s6.672 15.050 15.050 15.050 15.050-6.672 15.050-15.050c0-8.223-6.672-15.050-15.050-15.050zM869.935 34.987c-8.378 0-15.050 6.672-15.050 15.050s6.672 15.050 15.050 15.050 15.050-6.672 15.050-15.050c0-8.223-6.827-15.050-15.050-15.050zM868.383 897.784c-25.29-41.425-33.358-102.555-34.288-110.778-5.12-46.235-18.153-87.661-28.393-114.657-19.239-51.045-55.855-91.384-102.71-113.726-43.287-20.635-85.333-22.652-125.518-6.516 63.457 159.030 172.528 192.388 179.2 194.25 24.048 6.206 38.633 30.72 32.582 54.768-4.965 20.015-22.962 34.133-43.753 34.133-3.568 0-7.292-0.465-11.016-1.396-7.447-1.862-144.291-38.322-227.918-216.902-4.965 10.705-8.533 22.497-11.016 35.064-11.016 59.888 10.861 121.173 58.182 163.84 78.196 70.594 202.162 82.541 277.411 82.541 14.429 0.155 27.152-0.31 37.236-0.621zM749.072 775.525c-3.103-0.776-294.012-82.385-240.019-624.95-10.395 0.155-20.79 1.862-30.72 4.81-8.378 89.522-7.758 166.788-0.931 233.503-0.465 0-0.931-0.155-1.396-0.155-52.907 0-195.025 18.618-300.528 203.559-4.034 7.292-1.552 16.446 5.741 20.635 7.292 4.034 16.446 1.552 20.48-5.741 101.314-177.493 239.088-188.819 279.273-188.044 45.615 327.059 249.949 382.759 260.655 385.552 7.913 2.017 16.291-2.793 18.153-11.016 2.327-7.913-2.638-15.981-10.705-18.153z" />
<glyph unicode="&#xe902;" glyph-name="lawn-mower" d="M1000.202 120.891c-8.227 14.383-26.555 19.383-40.93 11.164-14.391-8.227-19.391-26.547-11.164-40.937 21.484-37.602 21.484-72.625 0-110.226-8.227-14.391-3.227-32.711 11.164-40.937 4.695-2.68 9.805-3.953 14.852-3.953 10.414 0 20.539 5.43 26.078 15.125 31.734 55.523 31.734 114.234 0 169.765zM687.648 285.063l-47.648 9.531v105.406h10c16.57 0 30 13.43 30 30s-13.43 30-30 30h-320c-16.57 0-30-13.43-30-30s13.43-30 30-30h10v-45.406l-87.203 17.437-194.406 567.679c-5.367 15.672-22.43 24.031-38.102 18.664s-24.031-22.43-18.664-38.102l186.398-544.273h-118.023c-16.57 0-30-13.43-30-30v-158.164c-24.797-26.766-40-62.555-40-101.836 0-82.711 67.289-150 150-150 65.18 0 120.758 41.805 141.398 100h212.133c13.586-57.266 65.117-100 126.469-100 71.687 0 130 58.32 130 130v130.812c0 42.75-30.43 79.867-72.352 88.25zM400 400h180v-93.406l-180 36zM150-4c-49.625 0-90 40.375-90 90s40.375 90 90 90 90-40.375 90-90-40.375-90-90-90zM630-4c-38.602 0-70 31.398-70 70 0 38.594 31.398 70 70 70s70-31.406 70-70c0-38.602-31.398-70-70-70zM699.999 175.461c-20.227 12.977-44.234 20.539-70 20.539-61.352 0-112.883-42.742-126.469-100h-203.898c-5.172 78.062-70.289 140-149.633 140-17.531 0-34.352-3.047-50-8.602v88.601h127.031l136.828-27.367c0.070-0.016 0.141-0.031 0.219-0.047l239.773-47.953c0.078-0.016 0.148-0.031 0.227-0.047l71.805-14.359c13.977-2.797 24.117-15.164 24.117-29.414zM170 86c0-11.047-8.953-20-20-20s-20 8.953-20 20 8.953 20 20 20 20-8.953 20-20zM839.117 132.055c-14.383-8.227-19.383-26.547-11.164-40.937 21.484-37.602 21.484-72.625 0-110.226-8.219-14.391-3.219-32.711 11.164-40.937 4.695-2.68 9.812-3.953 14.859-3.953 10.414 0 20.539 5.43 26.070 15.125 31.734 55.531 31.734 114.234 0 169.765-8.219 14.383-26.555 19.383-40.93 11.164z" />
<glyph unicode="&#xe903;" glyph-name="tree" d="M496.64 424.448s-107.52 301.056-143.36 401.408c-7.168 19.456-25.6 31.744-46.080 31.744s-38.912-13.312-46.080-31.744c-35.84-100.352-143.36-401.408-143.36-401.408-10.24-24.576-15.36-51.2-15.36-78.848 0-70.656 35.84-133.12 91.136-169.984 6.144-4.096 15.36 0 15.36 7.168 6.144 52.224 23.552 216.064 28.672 256 1.024 5.12 5.12 9.216 10.24 9.216h14.336c6.144 0 10.24-4.096 10.24-10.24v-389.12c0-6.144 4.096-10.24 10.24-10.24h48.128c6.144 0 10.24 4.096 10.24 10.24v87.040c0 5.12 3.072 9.216 8.192 10.24 93.184 19.456 162.816 101.376 162.816 199.68 0 27.648-5.12 54.272-15.36 78.848zM785.408 307.712c0 4.096 3.072 8.192 7.168 9.216 73.728 18.432 129.024 84.992 129.024 164.864 0 23.552-5.12 45.056-13.312 65.536 0 0-57.344 159.744-95.232 267.264-9.216 25.6-33.792 43.008-61.44 43.008h-1.024c-27.648 0-52.224-17.408-61.44-43.008-37.888-107.52-95.232-267.264-95.232-267.264-8.192-20.48-13.312-41.984-13.312-65.536 0-52.224 23.552-98.304 60.416-130.048 6.144-5.12 14.336-1.024 15.36 6.144 6.144 35.84 20.48 122.88 24.576 149.504 1.024 5.12 5.12 8.192 9.216 8.192h16.384c5.12 0 9.216-4.096 9.216-9.216v-313.344c0-4.096-3.072-8.192-7.168-9.216-100.352-24.576-195.584-67.584-277.504-128-7.168-5.12-4.096-17.408 6.144-17.408h474.112c5.12 0 9.216 4.096 9.216 9.216v151.552c0 5.12-4.096 10.24-10.24 10.24-38.912 0-77.824-3.072-115.712-9.216-6.144-1.024-11.264 4.096-11.264 9.216z" />
<glyph unicode="&#xe904;" glyph-name="grass" d="M240 80c0 304-224 384-224 384s352 0 352-384zM356.32 482.24c-23.568-39.902-42.587-86.088-54.624-135.020l-0.736-3.54c-66.56 229.28-204.96 312.32-204.96 312.32s151.68-19.84 260.32-173.76zM464 80h-64c-0.060 6.656-0.095 14.527-0.095 22.405 0 95.97 5.090 190.75 15.016 284.087l-1.001-11.612c31.832-82.396 50.274-177.739 50.274-277.39 0-6.15-0.070-12.284-0.21-18.401l0.016 0.91zM490.4 530.56c32.342-61.812 58.747-133.511 75.538-208.834l1.102-5.886c-4.48-69.12-7.040-147.36-7.040-235.84h-80c0.045 3.281 0.070 7.156 0.070 11.037 0 84.445-12.064 166.073-34.561 243.254l1.531-6.131c9.599 76.287 24.797 144.776 45.637 210.758l-2.277-8.358zM687.84 815.84c-2.4-2.24-53.92-51.2-90.88-246.24-20.605 22.29-42.613 42.573-66.144 61.002l-1.216 0.918c70.24 148 153.76 182.56 158.24 184.32zM699.68 377.6c-25.76-72.64-43.68-169.44-43.68-297.6h-48c0 416-208 608-208 608s201.6-64.16 299.68-310.4zM697.6 314.72c4-63.2 6.4-140.48 6.4-234.72h-32c-0.049 3.631-0.076 7.919-0.076 12.213 0 78.925 9.359 155.664 27.028 229.168l-1.352-6.661zM880 576s-44.16-50.56-77.12-179.36c-10.847 33.301-22.224 61.036-35.339 87.763l1.739-3.923c54.080 78.080 110.72 95.52 110.72 95.52zM800 80c0 272 208 304 208 304s-96-48-96-304zM819.84 252.32c-22.702-47.707-35.959-103.67-35.959-162.73 0-3.372 0.043-6.734 0.129-10.085l-0.010 0.496h-64c0 457.44-58.080 522.56-63.52 527.68 8.64-6.56 124.96-99.68 163.36-355.36zM432 544s-48-96-48-464c0 111.040-28.64 191.2-70.080 249.12 41.44 172.32 118.080 214.88 118.080 214.88z" />
<glyph unicode="&#xe905;" glyph-name="gardener" d="M1020.49 28.907l-42.148 81.226c-14.922 28.766-42.914 48.461-75.023 52.812l-103.562 14.047v32.922h22.445c6.508 0 11.781 5.281 11.781 11.789v24.219c0 6.508-5.273 11.781-11.781 11.781h-141.765c-6.508 0-11.781-5.273-11.781-11.781v-24.219c0-6.508 5.273-11.789 11.781-11.789h22.445v-19.797l-124.094 16.828c-4.125 0.477-8.164 0.367-12.047-0.258l-105.914 219.218c-11.297-8.109-24.703-12.789-38.5-13.555l111.703-230.546c-2.539-5.523-3.961-11.687-3.961-18.211v-146.781c0-18.195 14.75-32.937 32.937-32.937h30.469c-1.352 5.594-2.094 11.43-2.094 17.437 0 40.789 33.187 73.976 73.976 73.976 40.797 0 73.984-33.187 73.984-73.976 0-6.008-0.742-11.844-2.102-17.437h83.047c-1.359 5.594-2.094 11.43-2.094 17.437 0 40.789 33.18 73.976 73.976 73.976 40.789 0 73.976-33.187 73.976-73.976 0-6.008-0.734-11.844-2.094-17.437h29.773c0.656 0 1.297 0.016 1.937 0.055 21.953 1.273 34.859 25.453 24.727 44.976zM285.101 856.796c0-48.156-39.039-87.203-87.203-87.203-48.156 0-87.203 39.047-87.203 87.203 0 48.164 39.047 87.203 87.203 87.203 48.164 0 87.203-39.039 87.203-87.203zM452.499 466.5c10.195 18.836 3.187 42.375-15.648 52.57l-138.937 75.203-87.976 104.781 85.359-63.719v45.883c0 32.531-26.367 58.906-58.906 58.906h-105.047c-32.531 0-58.906-26.375-58.906-58.906v-302.234h0.391c-0.367-3.43 0.164 5.555-6.719-157.765l-63.93-206.398c-7.914-25.57 6.398-52.726 31.969-60.648 25.656-7.945 52.75 6.484 60.648 31.969l65.781 212.406c1.242 4 1.953 8.141 2.133 12.32l6.727 160.859c0.102 2.461 0.016 4.883-0.234 7.258h22.031l61.242-156.687 31.086-228.359c3.609-26.5 28.008-45.117 54.57-41.5 26.531 3.617 45.109 28.047 41.5 54.578l-31.867 234.086c-0.523 3.805-1.492 7.531-2.891 11.109l-49.586 126.851v89.844l-56.945 30.828c-5.937 3.898-15.406 5.93-21.078 17.187l-66.734 132.25 92.726-110.43c3.133-3.734 6.945-6.844 11.242-9.172l145.422-78.711c18.844-10.195 42.375-3.195 52.578 15.641zM665.366 50.626c-27.195 0-49.32-22.117-49.32-49.312s22.125-49.32 49.32-49.32 49.32 22.125 49.32 49.32-22.125 49.312-49.32 49.312zM665.366-15.124c-9.070 0-16.445 7.367-16.445 16.437 0 9.062 7.375 16.437 16.445 16.437 9.062 0 16.437-7.375 16.437-16.437 0-9.070-7.375-16.437-16.437-16.437zM892.17 50.626c-27.195 0-49.32-22.117-49.32-49.312s22.125-49.32 49.32-49.32c27.195 0 49.32 22.125 49.32 49.32s-22.125 49.312-49.32 49.312zM892.17-15.124c-9.070 0-16.437 7.367-16.437 16.437 0 9.062 7.367 16.437 16.437 16.437 9.062 0 16.437-7.375 16.437-16.437 0-9.070-7.375-16.437-16.437-16.437z" />
<glyph unicode="&#xe906;" glyph-name="location" d="M512 407c0.001 0 0.001 0 0.002 0 94.911 0 171.852 76.941 171.852 171.852s-76.941 171.852-171.852 171.852c-94.911 0-171.852-76.941-171.852-171.852v0c0.11-94.866 76.984-171.741 171.839-171.852h0.011zM512 702.702c0.001 0 0.001 0 0.002 0 68.402 0 123.852-55.45 123.852-123.852s-55.45-123.852-123.852-123.852c-68.402 0-123.852 55.45-123.852 123.852 0 0.001 0 0.002 0 0.002v0c0.088 68.364 55.485 123.761 123.842 123.846h0.008zM467.886 72.702c10.285-13.249 26.214-21.693 44.115-21.693s33.83 8.444 44.021 21.567l0.094 0.126 212.422 275.6c59.732 77.498 93.92 168.922 96.268 257.428 2.552 96.2-31.442 182.388-98.306 249.252-65.24 64.896-155.185 105.012-254.5 105.012s-189.26-40.116-254.516-105.028l0.016 0.015c-66.864-66.86-100.858-153.048-98.3-249.246 2.348-88.506 36.538-179.93 96.27-257.428zM291.44 821.046c56.554 56.21 134.5 90.954 220.56 90.954s164.006-34.743 220.575-90.969l-0.015 0.015c112.962-112.964 112.126-295.312-2.040-443.436l-212.42-275.61c-1.422-1.833-3.624-3.001-6.1-3.001s-4.678 1.168-6.087 2.984l-0.013 0.018-212.42 275.6c-114.166 148.134-115.004 330.482-2.040 443.446zM157.352 107.846c0 46.688 35.534 89.772 100.060 121.316 3.053 1.51 6.648 2.394 10.449 2.394 13.255 0 24-10.745 24-24 0-9.382-5.383-17.506-13.229-21.453l-0.138-0.063c-46.484-22.724-73.142-51.226-73.142-78.2 0-58.57 125.936-123.84 306.648-123.84s306.648 65.27 306.648 123.85c0 26.968-26.658 55.47-73.142 78.2-7.984 4.010-13.367 12.134-13.367 21.516 0 13.255 10.745 24 24 24 3.801 0 7.395-0.884 10.589-2.456l-0.141 0.063c64.526-31.544 100.060-74.628 100.060-121.316 0-49.526-39.438-94.434-111.048-126.454-65.468-29.28-151.98-45.402-243.6-45.402s-178.134 16.122-243.6 45.4c-71.612 32.016-111.048 76.924-111.048 126.45z" />
<glyph unicode="&#xe907;" glyph-name="pencil" d="M616.55 806.145l253.849-253.849 71.249 71.163-253.851 253.849zM971.824 907.46c-59.516 59.516-150.604 67.963-219.675 26.152l245.829-245.829c41.765 69.031 33.404 160.117-26.154 219.677zM73.017 263.164c-5.59-5.59-9.513-12.585-11.349-20.265l-60.496-254.021c-3.456-14.377 0.854-29.566 11.349-40.019 8.063-8.063 18.985-12.501 30.164-12.501 3.286 0 6.614 0.384 9.855 1.152l254.021 60.498c7.637 1.834 14.677 5.76 20.265 11.349l483.207 482.655-253.849 253.849-483.167-482.697zM627.475 563.815c16.681-16.681 16.681-43.645 0-60.326l-170.654-170.654c-8.319-8.319-19.241-12.501-30.164-12.501-10.921 0-21.845 4.182-30.164 12.501-16.681 16.681-16.681 43.645 0 60.326l170.654 170.654c16.683 16.681 43.647 16.681 60.328 0z" />
<glyph unicode="&#xe908;" glyph-name="pot" d="M295.424 544.223c-24.408-1.18-54.718 1.346-82.666 14.938-44.366 21.582-70.444 65.058-81.018 86.25-1.403 2.994-1.368 6.456 0.077 9.428 1.447 2.972 4.152 5.142 7.369 5.899 23.196 4.741 73.506 11.052 117.871-10.53 17.797-8.66 32.656-20.837 44.745-33.691-3.060-24.934-5.109-49.187-6.378-72.294zM331.486 761.133c-15.605 0.723-32.812 3.862-49.019 11.754-32.891 15.995-52.982 47.338-62.086 64.768-1.491 3.027-1.502 6.578-0.022 9.616 1.469 3.038 4.263 5.221 7.569 5.921 19.333 3.573 56.398 7.124 89.288-8.882 13.59-6.611 24.988-15.828 34.326-25.611-7.59-18.934-14.234-38.189-20.056-57.566zM459.23 733.073c49.464 18.866 102.666 6.99 126.33-0.178 3.117-1.046 5.61-3.428 6.778-6.512 1.18-3.073 0.912-6.512-0.723-9.371-12.878-21.093-44.655-65.391-94.119-84.257-66.093-25.21-138.886 4.474-138.886 4.474s34.528 70.634 100.619 95.844zM392.404 829.474c-48.050-106.206-62.531-226.070-64.957-319.599h33.090c2.315 89.2 16.061 202.896 61.395 303.905-10.841 3.406-20.824 8.77-29.528 15.694zM599.318 376.565h-482.838l38.745-315.849h344.598c8.159 0 15.916-2.983 21.916-8.203 3.684 2.26 7.613 4.073 11.72 5.432l-25.377 206.848c-1.936 15.828 2.994 31.722 13.557 43.653 10.563 11.942 25.745 18.777 41.683 18.777h46.748c-2.303 16.206-5.92 32.803-10.751 49.342zM112.383 409.956h475.481c-9.228 23.329-20.824 45.946-34.526 66.527h-423.957c-6.378 0-12.455-2.727-16.674-7.501-4.23-4.776-6.199-11.142-5.421-17.464 0 0 5.098-41.562 5.098-41.562zM499.823 27.325h-386.993c-7.324 0-14.18-3.595-18.332-9.628s-5.075-13.724-2.46-20.569c4.941-12.967 10.618-27.827 15.127-39.646 4.941-12.933 17.352-21.482 31.199-21.482h380.159c-1.758 3.038-3.283 6.232-4.564 9.572-4.507 11.821-10.173 26.679-15.127 39.646-5.252 13.759-4.785 28.873 0.991 42.108zM744.926 454.556c18.665-37.544 29.807-80.573 30.576-126.775 0.011-0.189 0.011-0.368 0.011-0.557h32.746c9.228 78.035 49.598 165.788 121.111 227.473 3.707 3.049 5.009 8.136 3.216 12.589-1.78 4.441-6.256 7.212-11.030 6.845-77.145-7.113-141.135-53.772-176.63-119.575zM643.762 327.224c-9.862 76.711-47.138 162.014-103.113 217.243-3.496 3.15-4.597 8.17-2.738 12.499 1.859 4.318 6.256 6.979 10.953 6.611 102.957-10.351 191.154-110.681 193.258-236.355zM566.762 60.717h328.47l25.534 208.139c0.78 6.333-1.191 12.689-5.421 17.464s-10.296 7.514-16.674 7.514c-69.832 0-265.517 0-335.349 0-6.378 0-12.444-2.738-16.674-7.514-4.219-4.776-6.199-11.131-5.421-17.464zM931.963-2.872c2.615 6.845 1.692 14.537-2.46 20.569-4.152 6.033-11.008 9.628-18.332 9.628-79.027 0-281.321 0-360.348 0-7.324 0-14.18-3.595-18.332-9.628s-5.075-13.724-2.46-20.569c4.952-12.967 10.618-27.827 15.127-39.646 4.941-12.933 17.352-21.482 31.199-21.482h309.281c13.847 0 26.256 8.548 31.199 21.482 4.509 11.819 10.186 26.679 15.127 39.646zM508.028 901.476c0-32.322-26.202-58.524-58.524-58.524s-58.524 26.202-58.524 58.524c0 32.322 26.202 58.524 58.524 58.524s58.524-26.202 58.524-58.524z" />
<glyph unicode="&#xe909;" glyph-name="group" d="M735.275 306.005c-14.929 98.676-98.919 173.508-200.482 173.994h-45.448c-101.614-0.486-185.604-75.319-200.393-172.867l-0.141-1.127-21.76-152.149c-0.2-1.346-0.315-2.899-0.315-4.478 0-8.852 3.594-16.864 9.402-22.657l0.001-0.001c8.533-8.533 60.885-52.053 235.947-52.053s227.285 43.349 235.947 52.053c5.809 5.794 9.403 13.806 9.403 22.658 0 1.58-0.114 3.133-0.336 4.651l0.021-0.173zM322.56 456.533c-40.042-36.997-67.558-87.029-75.789-143.323l-0.158-1.317-15.787-109.227c-126.72 0.853-165.12 46.933-171.52 56.32-3.755 5.126-6.009 11.557-6.009 18.515 0 1.9 0.168 3.761 0.49 5.569l-0.028-0.191 9.387 52.907c14.985 82.488 86.266 144.219 171.966 144.219 32.202 0 62.369-8.716 88.269-23.918l-0.821 0.446zM970.24 282.88c0.294-1.617 0.462-3.478 0.462-5.378 0-6.958-2.254-13.389-6.071-18.604l0.062 0.089c-6.4-9.387-44.8-55.467-171.52-56.32l-15.787 109.227c-8.389 57.611-35.904 107.643-75.783 144.491l-0.164 0.149c25.079 14.756 55.246 23.472 87.448 23.472 85.699 0 156.98-61.73 171.804-143.151l0.161-1.067zM329.813 550.4c-21.231-29.838-55.688-49.068-94.637-49.068-0.179 0-0.358 0-0.537 0.001h0.028c-64.801 0-117.333 52.532-117.333 117.333s52.532 117.333 117.333 117.333c26.547 0 51.035-8.816 70.695-23.681l-0.295 0.214c-4.065-15.266-6.4-32.792-6.4-50.864 0-0.118 0-0.236 0-0.354v0.018c0.035-41.021 11.619-79.328 31.676-111.856l-0.529 0.922zM906.667 618.667c0-0.025 0-0.055 0-0.085 0-64.754-52.494-117.248-117.248-117.248-0.030 0-0.060 0-0.090 0h0.005c-0.151-0.001-0.33-0.001-0.51-0.001-38.949 0-73.406 19.229-94.397 48.712l-0.24 0.355c19.527 31.605 31.111 69.913 31.147 110.924v0.010c0 0.1 0 0.218 0 0.336 0 18.072-2.335 35.598-6.719 52.294l0.319-1.43c19.365 14.65 43.853 23.467 70.4 23.467 64.801 0 117.333-52.532 117.333-117.333v0zM672 661.333c0-88.366-71.634-160-160-160s-160 71.634-160 160c0 88.366 71.634 160 160 160s160-71.634 160-160z" />
<glyph unicode="&#xe90a;" glyph-name="quote" d="M0 374.857h219.428l-146.287-292.57h219.428l146.287 292.57v438.857h-438.857zM585.143 813.713v-438.857h219.428l-146.287-292.57h219.428l146.287 292.57v438.857z" />
<glyph unicode="&#xe90b;" glyph-name="rating" d="M352.96 374.080h-58.56c-31.68 0-57.6-25.92-57.6-57.6v-241.92c0-32 25.92-57.6 57.6-57.6h58.56zM784 269.12l-53.12-191.36c-9.92-35.84-42.24-60.8-79.68-60.8h-250.24v357.12l105.6 149.44c11.2 15.68 29.44 25.28 48.96 25.28 33.92 0 59.84-27.84 59.84-59.84 0-5.44-0.64-10.88-2.24-16.32l-27.84-98.56h119.040c54.72 0 94.4-52.16 79.68-104.96zM194.624 742.432l24.032-48.672c2.272-4.576 6.624-7.776 11.712-8.512l53.728-7.808c12.736-1.856 17.824-17.504 8.608-26.496l-38.88-37.888c-3.648-3.584-5.344-8.704-4.48-13.76l9.184-53.504c2.176-12.704-11.136-22.368-22.56-16.384l-48.064 25.248c-4.512 2.368-9.92 2.368-14.464 0l-48.064-25.248c-11.392-5.984-24.736 3.68-22.56 16.384l9.184 53.504c0.864 5.056-0.8 10.176-4.48 13.76l-38.816 37.888c-9.216 8.992-4.128 24.64 8.608 26.496l53.728 7.808c5.056 0.736 9.44 3.936 11.712 8.512l24.032 48.672c5.696 11.552 22.144 11.552 27.84 0zM525.92 870.432l24.032-48.672c2.272-4.576 6.624-7.776 11.712-8.512l53.728-7.808c12.736-1.856 17.824-17.504 8.608-26.496l-38.88-37.888c-3.648-3.584-5.344-8.704-4.48-13.76l9.184-53.504c2.176-12.704-11.136-22.368-22.56-16.384l-48.064 25.248c-4.512 2.368-9.92 2.368-14.464 0l-48.064-25.248c-11.392-5.984-24.736 3.68-22.56 16.384l9.184 53.504c0.864 5.056-0.8 10.176-4.48 13.76l-38.816 37.888c-9.216 8.992-4.128 24.64 8.608 26.496l53.728 7.808c5.056 0.736 9.44 3.904 11.712 8.512l24.032 48.672c5.696 11.552 22.144 11.552 27.84 0zM857.216 742.432l24.032-48.672c2.272-4.576 6.624-7.776 11.712-8.512l53.728-7.808c12.736-1.856 17.824-17.504 8.608-26.496l-38.88-37.888c-3.648-3.584-5.344-8.704-4.48-13.76l9.184-53.504c2.176-12.704-11.136-22.368-22.56-16.384l-48.064 25.248c-4.512 2.368-9.92 2.368-14.464 0l-48.064-25.248c-11.392-5.984-24.736 3.68-22.56 16.384l9.184 53.504c0.864 5.056-0.8 10.176-4.48 13.76l-38.88 37.888c-9.216 8.992-4.128 24.64 8.608 26.496l53.728 7.808c5.056 0.736 9.44 3.904 11.712 8.512l24.032 48.672c5.76 11.552 22.208 11.552 27.904 0z" />
<glyph unicode="&#xe90c;" glyph-name="guarantee" d="M155.307 359.564h-72.145c-9.93 0-17.998-8.068-17.998-17.998v-308.131c0-9.93 8.068-17.998 17.998-17.998h71.99c9.93 0 17.998 8.068 17.998 17.998v308.131c0.155 9.93-7.913 17.998-17.842 17.998zM576.233 554.279c5.43-5.43 15.205-5.43 20.79 0l99.762 99.762c2.793 2.793 4.344 6.516 4.344 10.395s-1.552 7.602-4.344 10.395c-5.741 5.741-15.050 5.741-20.79 0l-78.972-78.972c-5.741-5.741-15.050-5.741-20.79 0l-18.618 18.618c-2.948 2.793-6.672 4.189-10.395 4.189s-7.447-1.396-10.395-4.344c-5.741-5.741-5.741-15.050 0-20.79zM616.727 462.895c83.627 0 151.738 68.112 151.738 151.738s-68.112 151.738-151.738 151.738-151.738-68.112-151.738-151.738c0.155-83.782 68.112-151.738 151.738-151.738zM516.189 635.113c17.067 17.067 44.994 17.067 62.216 0l8.378-8.378 68.577 68.577c17.067 17.067 44.994 17.067 62.216 0 8.223-8.223 12.878-19.394 12.878-31.030s-4.655-22.807-12.878-31.030l-99.762-99.762c-8.223-8.378-19.394-12.878-31.030-12.878-11.792 0-22.807 4.499-31.030 12.878l-39.408 39.408c-17.377 17.222-17.377 45.149-0.155 62.216zM383.845 538.764c8.688-26.841-15.825-70.904 0.31-93.246 16.446-22.497 66.095-12.722 88.592-29.168 22.342-16.291 28.238-66.56 55.079-75.248 25.91-8.378 60.199 28.548 88.902 28.548s62.992-36.926 88.902-28.548c26.841 8.688 32.737 59.113 55.079 75.248 22.497 16.446 72.145 6.516 88.592 29.168 16.291 22.342-8.378 66.405 0.465 93.246 8.378 25.91 54.458 47.011 54.458 75.714s-46.080 49.804-54.458 75.714c-8.688 26.841 15.825 70.904-0.31 93.246-16.446 22.497-66.095 12.722-88.592 29.168-22.342 16.291-28.238 66.56-55.079 75.248-25.91 8.378-60.199-28.548-88.902-28.548s-62.992 36.926-88.902 28.548c-26.841-8.688-32.737-59.113-55.079-75.248-22.497-16.446-72.145-6.516-88.592-29.168-16.291-22.342 8.378-66.405-0.465-93.246-8.378-25.91-54.458-47.011-54.458-75.714s46.080-49.804 54.458-75.714zM616.727 795.539c99.762 0 180.907-81.144 180.907-181.062s-81.144-180.907-180.907-180.907-180.907 81.144-180.907 180.907 81.144 181.062 180.907 181.062zM935.098 222.099c-11.636 6.206-24.824 7.137-36.771 2.948l-236.761-84.868c-11.326-6.206-24.514-9.775-38.322-9.775h-135.292c-8.068 0-14.584 6.516-14.584 14.584s6.516 14.584 14.584 14.584h135.292c8.533 0 16.756 2.172 23.738 5.896 0.776 0.465 1.552 0.931 2.482 1.396 10.861 6.516 18.618 17.067 20.635 29.479 2.172 13.343-1.396 26.065-9.93 36.15-8.378 9.93-20.635 15.515-33.668 15.515h-106.744c-30.72 0-61.285 11.016-86.264 31.030-40.495 32.272-122.415 74.783-230.865 15.825v-219.384c32.116-1.552 87.816-9.154 162.133-38.167 80.058-31.341 165.392-38.633 246.536-20.945 83.161 18.153 207.282 54.924 326.439 127.845 9.93 6.051 17.222 16.446 20.015 28.238 4.499 19.549-4.81 40.029-22.652 49.648z" />
<glyph unicode="&#xe90d;" glyph-name="high-quality" d="M312 68.8c-6.4 4.8-14.4 9.6-20.8 12.8 1.6 12.8 0 27.2-3.2 41.6-6.4 24-19.2 46.4-36.8 67.2-16-12.8-24-35.2-20.8-59.2-11.2 11.2-22.4 22.4-32 33.6 6.4 11.2 9.6 25.6 9.6 40 1.6 24-3.2 48-14.4 72-20.8-8-33.6-28.8-36.8-52.8-8 12.8-14.4 27.2-20.8 40 9.6 9.6 17.6 22.4 22.4 36.8 8 22.4 9.6 46.4 4.8 72-22.4-3.2-41.6-19.2-51.2-43.2-4.8 16-8 30.4-9.6 46.4 12.8 6.4 24 17.6 32 30.4 12.8 19.2 22.4 43.2 24 68.8-24 3.2-48-9.6-62.4-32 0 16 1.6 33.6 3.2 49.6 14.4 3.2 28.8 11.2 41.6 20.8 17.6 14.4 32 35.2 41.6 59.2-22.4 9.6-49.6 3.2-70.4-16 4.8 16 9.6 33.6 16 49.6 16-1.6 32 3.2 46.4 9.6 20.8 9.6 40 25.6 56 48-19.2 16-48 16-73.6 1.6 9.6 16 19.2 30.4 30.4 44.8 14.4-6.4 32-6.4 49.6-3.2 24 4.8 48 14.4 70.4 32-14.4 20.8-43.2 28.8-73.6 20.8 22.4 20.8 46.4 40 75.2 56 8 4.8 11.2 14.4 6.4 22.4s-16 11.2-24 6.4c-30.4-17.6-57.6-38.4-81.6-60.8 12.8 32 14.4 60.8 0 83.2-28.8-19.2-49.6-51.2-54.4-78.4-4.8-20.8-1.6-38.4 8-52.8-12.8-16-24-33.6-33.6-49.6 3.2 33.6-4.8 62.4-24 78.4-22.4-30.4-32-65.6-28.8-92.8 1.6-20.8 9.6-36.8 22.4-48-8-19.2-14.4-36.8-19.2-56-6.4 32-20.8 57.6-44.8 68.8-12.8-35.2-12.8-70.4-3.2-96 8-19.2 19.2-32 35.2-40-3.2-19.2-3.2-38.4-3.2-57.6-14.4 28.8-35.2 48-60.8 51.2-3.2-36.8 6.4-70.4 22.4-92.8 11.2-16 27.2-25.6 43.2-28.8 1.6-19.2 6.4-36.8 9.6-54.4-20.8 22.4-44.8 35.2-70.4 32 6.4-36.8 24-67.2 46.4-83.2 14.4-12.8 32-17.6 46.4-16 6.4-16 14.4-33.6 22.4-48-27.2 11.2-52.8 17.6-75.2 8 16-33.6 41.6-59.2 67.2-70.4 17.6-8 33.6-8 48-4.8 11.2-14.4 22.4-27.2 35.2-40-27.2 6.4-51.2 4.8-68.8-9.6 25.6-28.8 59.2-46.4 88-51.2 17.6-3.2 33.6 0 46.4 6.4 6.4-4.8 14.4-9.6 20.8-14.4 12.8-8 28.8-3.2 35.2 9.6 6.4 11.2 3.2 25.6-8 32zM948.8 318.4c4.8 17.6 8 36.8 9.6 54.4 16 3.2 30.4 12.8 43.2 28.8 16 22.4 25.6 56 22.4 92.8-25.6-3.2-46.4-24-60.8-51.2 0 19.2-1.6 38.4-3.2 57.6 14.4 6.4 27.2 20.8 35.2 40 9.6 25.6 11.2 60.8-3.2 96-24-11.2-38.4-36.8-44.8-68.8-4.8 19.2-11.2 38.4-19.2 56 12.8 11.2 20.8 27.2 22.4 48 3.2 27.2-6.4 62.4-28.8 92.8-20.8-16-27.2-46.4-24-78.4-12.8 17.6-24 33.6-36.8 49.6 9.6 12.8 12.8 32 8 52.8-4.8 27.2-25.6 59.2-57.6 84.8-14.4-20.8-12.8-51.2 0-83.2-24 22.4-51.2 43.2-81.6 60.8-8 4.8-19.2 1.6-24-6.4s-1.6-17.6 6.4-22.4c27.2-16 52.8-35.2 75.2-56-30.4 8-59.2 0-73.6-20.8 22.4-17.6 46.4-27.2 70.4-32 17.6-3.2 35.2-3.2 49.6 3.2 11.2-14.4 22.4-30.4 30.4-44.8-25.6 14.4-54.4 14.4-73.6-1.6 16-20.8 35.2-38.4 56-48 16-8 32-11.2 46.4-9.6 6.4-16 11.2-32 16-49.6-20.8 19.2-48 25.6-70.4 16 9.6-24 24-44.8 41.6-59.2 12.8-11.2 27.2-17.6 41.6-20.8 1.6-16 3.2-33.6 3.2-49.6-14.4 22.4-38.4 35.2-62.4 32 3.2-25.6 11.2-49.6 24-68.8 8-12.8 19.2-24 32-30.4-3.2-16-6.4-30.4-9.6-46.4-9.6 24-27.2 41.6-51.2 43.2-4.8-25.6-1.6-51.2 4.8-72 4.8-14.4 11.2-27.2 22.4-36.8-6.4-14.4-12.8-27.2-20.8-40-3.2 24-16 44.8-36.8 52.8-11.2-24-16-48-14.4-72 0-14.4 3.2-28.8 9.6-40-9.6-11.2-20.8-22.4-32-33.6 3.2 24-3.2 46.4-20.8 59.2-17.6-20.8-30.4-43.2-36.8-67.2-3.2-14.4-4.8-28.8-3.2-41.6-6.4-4.8-12.8-9.6-20.8-12.8-11.2-6.4-14.4-20.8-9.6-32 6.4-12.8 22.4-17.6 35.2-9.6 8 4.8 14.4 9.6 20.8 14.4 12.8-6.4 28.8-9.6 46.4-6.4 28.8 4.8 62.4 22.4 88 51.2-17.6 14.4-41.6 16-68.8 9.6 12.8 12.8 24 25.6 35.2 40 14.4-3.2 30.4-1.6 48 4.8 25.6 11.2 51.2 35.2 67.2 70.4-22.4 9.6-48 3.2-72-11.2 8 16 16 32 22.4 48 16 0 32 4.8 46.4 16 20.8 17.6 40 46.4 46.4 83.2-20.8 0-44.8-14.4-65.6-35.2zM708.8 171.2l-33.6 193.6 140.8 137.6c4.8 4.8 6.4 11.2 4.8 16-1.6 6.4-6.4 9.6-12.8 11.2l-195.2 28.8-86.4 176c-3.2 4.8-8 9.6-14.4 9.6s-11.2-3.2-14.4-9.6l-86.4-176-195.2-28.8c-6.4-1.6-11.2-4.8-12.8-11.2s0-12.8 4.8-16l140.8-137.6-33.6-193.6c-1.6-6.4 1.6-12.8 6.4-16s11.2-4.8 17.6-1.6l172.8 92.8 174.4-91.2c1.6-1.6 4.8-1.6 8-1.6s6.4 1.6 9.6 3.2c3.2 3.2 6.4 8 4.8 14.4z" />
<glyph unicode="&#xe90e;" glyph-name="gardening" d="M320.951 686.264h33.352v-428.030c19.957 1.461 40.644 0.24 60.021-3.481v235.803h33.352c99.455 0 180.363 80.908 180.363 180.363v93.373c-81.175-1.669-148.192 12.841-213.715-46.116 0 5.25 0 67.154 0 70.125h-0.22c-4.522 95.454-83.589 171.7-180.143 171.7h-93.373v-93.373c0-99.455 80.908-180.363 180.363-180.363zM699.044 248.51l17.546 134.507c-45.076 8.023-93.233-5.342-127.965-40.074l-110.399-110.399c49.757-25.969 89.451-69.664 109.819-123.924 49.894 2.289 96.218-9.381 135.087-40.894l70.345 70.345c34.732 34.752 48.097 82.909 40.094 127.985zM776.551 378.676c-1.637-12.454-6.218-47.627-7.903-60.561 13.115 1.709 47.959 6.246 60.581 7.903 5.474 5.478 18.675 18.663 24.289 24.269l-52.679 52.679zM1003.631 553.097c-14.519 14.509-38.161 14.519-52.679 0 0 0-107.678-107.698-107.678-107.698l52.679-52.679 107.678 107.698c14.443 13.877 14.433 38.81 0 52.679zM702.485 4.644c-23.892 27.774-59.043 44.061-96.034 43.955-11.194 0.004-51.58-0.002-63.422 0-38.532 200.19-305.455 200.088-343.961 0h-63.402c-65.143 0-118.982-49.337-126.124-112.6h723.034c-2.849 25.489-13.299 49.327-30.091 68.644z" />
<glyph unicode="&#xe90f;" glyph-name="nature" d="M628.796 273.38c19.422 22.438 47.734 55.797 72.297 87.391 63.641 81.852 69.688 130.031 69.906 132.039-0.719-1.094-79.609-116.211-148.156-179.039l-12.469-11.438-0.922 16.891c-1.297 23.797-4.719 47.172-10.141 69.469l-0.516 2.094 0.609 2.078c23.328 78.508 100.078 219.164 352.156 279.117l29.547 7.031-22.266-20.672c-23.688-22.008-58.75-65.742-91.219-149.133-50.297-129.516-120.812-205.068-257.218-260.865zM563.859 216.609c-36.453 2.938-163.797 25.062-271.516 186.656-106.797 160.188-195.156 216.656-238.328 236.063l-20.969 9.43 22.297 5.625c22.734 5.742 60.109 12.586 108.984 12.586 85.125 0 171.922-20.266 257.984-60.219 175.438-87.719 194.016-245.5 189.484-331.75l-1.391-26.656-13.5 23.031c-17.906 30.562-55.219 89.141-103.953 138.125-70.172 70.5-140.687 106.164-143.656 107.648 1.234-0.766 126.438-80.555 222.469-289.227l5.719-12.422z" />
<glyph unicode="&#xe910;" glyph-name="right-up" d="M682.833 558.336l-367.232-367.232-60.331 60.331 367.189 367.232h-323.626v85.333h469.333v-469.333h-85.333z" />
<glyph unicode="&#xe911;" glyph-name="farmer1" d="M1001.64-19h-89.62c-2.862 18.36-4.544 35.056-5.282 50.168 2.472 6.154 10.652 42.882 60.248 63.526 6.224 2.632 11.6 4.36 16.758 5.662 7.61 1.936 5.782 13.298-2.048 12.766-26.7-1.82-54.172-12.798-73.422-27.958 4.156 35.19 13.926 56.202 20.566 66.88 3.588 5.768 3.016 13.19-1.42 18.336l-0.014 0.016c-7.87 9.126-22.408 7.872-28.594-2.488-4.118-6.902-8.586-15.904-12.656-27.3-11.612 16.622-30.202 33.266-50.59 43.356-6.878 3.41-13.336-6.114-6.426-11.27 28.734-21.454 47.464-55.056 44.472-92.016-0.766-10.986-1.262-18.844-1.258-31.156-16.422 13.282-40.672 24.838-65.254 28.386-7.606 1.106-10.778-9.95-2.608-12.708 62.518-21.13 69.816-72.516 72.224-77.244 0.306-2.294 0.632-4.614 0.978-6.956h-211.43c-2.862 18.36-4.544 35.056-5.282 50.168 2.47 6.154 10.652 42.882 60.248 63.526 6.224 2.632 11.6 4.36 16.758 5.662 7.61 1.936 5.782 13.298-2.048 12.766-26.7-1.82-54.172-12.798-73.422-27.958 4.158 35.19 13.926 56.202 20.566 66.88 3.588 5.768 3.016 13.19-1.42 18.336l-0.014 0.016c-7.87 9.126-22.41 7.872-28.594-2.488-4.118-6.902-8.586-15.904-12.656-27.3-11.612 16.622-30.202 33.266-50.588 43.356-6.878 3.41-13.336-6.114-6.426-11.27 28.734-21.454 47.464-55.056 44.472-92.016-0.766-10.986-1.262-18.844-1.258-31.156-16.422 13.282-40.672 24.838-65.254 28.386-7.606 1.106-10.778-9.95-2.608-12.708 62.518-21.13 69.816-72.516 72.224-77.244 0.306-2.294 0.632-4.616 0.978-6.956h-190.056c13.134 10.968 19.824 28.704 15.77 46.536l-53.338 234.602c-0.7 3.074-1.706 6.068-3.002 8.944l-44.384 98.216c-4.6-7.986-10.644-15.164-17.992-21.17-10.374-8.482-22.808-14.064-35.908-16.274l-19.822-27.864 30.428-67.33 52.286-229.98c2.382-10.474 8.108-19.302 15.77-25.678h-236.924c6.044 5.030 10.922 11.624 13.896 19.506l79.346 210.374c4.958 13.142 2.618 22.87 1.196 31.926-32.24-40.766-75.1-71.224-123.104-88.564l-45.462-120.538c-7.26-19.248-1.038-40.236 13.922-52.706h-25.34c-12.35 0-22.36-10.010-22.36-22.36s10.010-22.36 22.36-22.36h942.418c12.348 0 22.36 10.010 22.36 22.36 0 12.346-10.012 22.36-22.36 22.36zM418.672 873.204c0-47.783-38.735-86.518-86.518-86.518s-86.518 38.735-86.518 86.518c0 47.783 38.735 86.518 86.518 86.518s86.518-38.735 86.518-86.518zM129.552 483.048l-8.834-46.1c-3.32-7.82-4.61-16.612-3.196-25.622l18.272-116.396c7.594 7.208 14.554 15.174 20.728 23.852l49.864 70.094c-82.072 100.408-74.7 91.306-76.834 94.172zM560.82 516.672c-1.238 12.284-12.188 21.236-24.488 20.006l-71.286-7.184c-48.816-4.92-94.884-22.506-134.040-50.282 19.748-24.158 22.574-26.946 27.166-35.548 21.492 15.028 45.422 26.41 70.824 33.6 40.476-26.33 37.768-24.666 40.4-26.034 14.18-7.376 30.914-5.23 42.698 4.352h-0.002c10.192 8.288 15.83 21.394 14.116 35.132l14.608 1.472c12.286 1.236 21.242 12.202 20.004 24.486zM228.396 361.952l-44.542-62.612c-37.11-52.16-97.48-83.302-161.494-83.302-12.35 0-22.36-10.010-22.36-22.36s10.010-22.36 22.36-22.36c78.458 0 152.452 38.168 197.932 102.096l44.026 61.886c-16.082 5.776-26.226 14.79-35.922 26.652zM309.736 505.23c17.312 12.472 35.84 23.166 55.32 31.878 24.988 11.174 51.52 19.106 78.972 23.456l-44.516 28.766-18.022 33.54 11.364 59.29c6.076 31.702-14.7 62.326-46.402 68.4l-102.364 19.616c-31.702 6.076-62.326-14.7-68.4-46.402l-20.338-106.138 46.884 80.086-48.494-157.32c-3.802-12.312-1.36-25.994 7.104-36.35l99.114-121.254c13.686-16.746 38.45-19.202 55.158-5.544 16.696 13.648 19.302 38.32 5.542 55.158l-85.812 104.982 43.916 142.466-5.692-129.77 36.666-44.86zM622.196 485.878l-0.068 0.024c-6.636 2.346-13.006 3.736-15.482 4.012-6.14 0.68-11.668-3.746-12.348-9.886-0.652-5.86 3.38-11.628 10.098-12.372 2.134-0.234 6.43-1.084 10.992-2.474 5.538-1.678 11.498 1.278 13.448 6.79 2.008 5.676-0.966 11.9-6.64 13.906zM679.914 450.112l-0.054 0.046c-9.198 8.546-20.036 16.356-23.948 18.784-4.756 2.954-11.004 1.494-13.958-3.262s-1.494-11.004 3.262-13.956l0.134-0.082c7.23-4.49 14.022-9.042 21.904-15.756 3.86-3.278 9.67-2.98 13.152 0.766 3.582 3.852 3.36 9.878-0.492 13.46zM721.634 398.448l-0.024 0.040c-5.714 9.442-10.988 16.776-16.664 24.244-0.070 0.090-0.16 0.206-0.232 0.292-3.090 3.726-8.616 4.238-12.34 1.148-3.726-3.090-4.238-8.616-1.148-12.34l0.062-0.074c5.458-6.576 10.672-13.158 16.582-22.044 2.406-3.606 7.26-4.73 11.008-2.462 3.85 2.33 5.086 7.342 2.756 11.196zM749.756 339.288l-0.008 0.026c-4.366 12.008-10.042 24.916-11.168 27.152-1.834 3.646-6.276 5.118-9.926 3.282s-5.12-6.278-3.284-9.926l0.026-0.052c3.918-7.79 7.602-15.426 11.72-25.392 1.382-3.332 5.162-5.028 8.586-3.784 3.518 1.284 5.334 5.174 4.054 8.694zM767.54 276.986l-6.762 27.702c-0.018 0.076-0.046 0.182-0.070 0.258-0.93 3.192-4.272 5.026-7.464 4.096s-5.026-4.27-4.096-7.464l7.94-27.388c0.81-2.762 3.664-4.44 6.486-3.748 2.904 0.714 4.68 3.642 3.966 6.544zM777.776 213.102l-3.706 28.276c-0.008 0.060-0.020 0.14-0.032 0.202-0.446 2.528-2.856 4.22-5.384 3.774s-4.22-2.856-3.774-5.384l4.91-28.092c0.376-2.116 2.356-3.594 4.508-3.31 2.212 0.292 3.768 2.32 3.478 4.534zM780.894 177.258c-0.002 0.042-0.006 0.098-0.012 0.14-0.178 1.802-1.784 3.116-3.586 2.938s-3.116-1.784-2.938-3.586l1.328-13.356c0.164-1.584 1.542-2.782 3.148-2.692 1.65 0.094 2.912 1.508 2.818 3.154l-0.758 13.402zM658.556 522.088l-0.040 0.008c-6.444 1.558-12.792 2.638-14.698 2.828-6.144 0.61-11.62-3.874-12.234-10.022-0.582-5.85 3.484-11.586 10.292-12.262 4.006-0.398 8.058-1.030 12.060-1.802 5.664-1.084 11.262 2.458 12.634 8.124 1.414 5.838-2.176 11.716-8.014 13.126zM715.12 502.060l-0.030 0.014c-8.98 4.156-16.56 7.176-24.51 10.178-5.528 2.060-11.454-0.932-13.216-6.342-1.736-5.322 1.174-11.044 6.496-12.778l0.070-0.022c7.432-2.424 14.666-4.908 23.576-8.546 4.688-1.906 10.118 0.184 12.266 4.828 2.212 4.782 0.13 10.454-4.652 12.668zM766.728 473.294l-21.998 13.514c-0.106 0.064-0.244 0.146-0.354 0.206-4.258 2.35-9.612 0.804-11.962-3.452s-0.802-9.61 3.454-11.96l22.592-12.492c3.816-2.1 8.672-0.86 10.972 2.892 2.374 3.864 1.162 8.92-2.704 11.292zM813.804 437.526l-19.95 16.39c-0.080 0.068-0.188 0.152-0.272 0.214-3.308 2.468-7.99 1.792-10.458-1.516s-1.792-7.99 1.516-10.458l20.678-15.46c2.926-2.18 7.098-1.706 9.438 1.144 2.412 2.94 1.984 7.276-0.952 9.686zM855.79 396.278l-17.794 18.706c-0.060 0.064-0.138 0.146-0.202 0.204-2.448 2.346-6.336 2.262-8.682-0.186s-2.262-6.334 0.186-8.682l18.632-17.872c2.128-2.032 5.512-2.066 7.668-0.014 2.22 2.114 2.304 5.626 0.192 7.844zM892.706 350.724l-15.646 20.54c-0.040 0.054-0.096 0.12-0.138 0.174-1.706 2.036-4.738 2.302-6.776 0.6-2.036-1.706-2.306-4.738-0.6-6.776l16.57-19.802c1.44-1.712 3.994-2.016 5.792-0.646 1.852 1.414 2.21 4.060 0.798 5.91zM918.354 312.45l-7.17 11.346c-0.026 0.040-0.060 0.094-0.088 0.132-1.1 1.574-3.266 1.962-4.844 0.86-1.574-1.1-1.958-3.266-0.86-4.84l7.682-11.006c0.966-1.378 2.856-1.774 4.294-0.866 1.48 0.934 1.922 2.894 0.986 4.374zM636.944 553.794c-1.092 5.906-6.762 9.812-12.668 8.72l-0.040-0.006c-6.096-1.124-12.338-2.666-14.574-3.406-5.86-1.946-9.036-8.276-7.090-14.136 1.95-5.862 8.28-9.038 14.14-7.092 3.972 1.32 7.826 2.38 12.008 3.354 5.612 1.316 9.28 6.834 8.224 12.566zM684.064 567.27c-9.892 0.136-18.028-0.194-26.532-0.694-0.14-0.008-0.322-0.022-0.462-0.038-5.568-0.584-9.608-5.572-9.024-11.14s5.57-9.604 11.138-9.020l0.074 0.006c7.774 0.816 15.394 1.494 25.012 1.802 5.060 0.17 9.166 4.29 9.236 9.406 0.070 5.236-4.096 9.606-9.442 9.678zM742.946 562.034c-0.318 0.042-25.682 3.396-26 3.424-4.846 0.412-9.108-3.182-9.518-8.028-0.412-4.846 3.18-9.108 8.024-9.518l25.722-2.202c4.34-0.362 8.268 2.748 8.844 7.112 0.592 4.496-2.576 8.622-7.072 9.212zM800.51 548.548c-0.26 0.072-24.97 6.864-25.23 6.922-4.024 0.908-8.024-1.618-8.932-5.646-0.908-4.026 1.616-8.024 5.644-8.932l25.184-5.69c3.562-0.798 7.178 1.334 8.152 4.892 1.002 3.666-1.154 7.45-4.818 8.454zM855.656 527.988c-0.202 0.082-23.934 9.86-24.138 9.934-3.194 1.144-6.708-0.514-7.852-3.708-1.144-3.19 0.514-6.706 3.706-7.852l24.298-8.728c2.772-0.988 5.876 0.36 7.008 3.11 1.164 2.836-0.188 6.080-3.022 7.244zM907.93 501.43c-0.152 0.082-22.7 12.408-22.854 12.484-2.388 1.166-5.266 0.174-6.43-2.214s-0.172-5.268 2.214-6.43l23.2-11.33c2.012-0.978 4.47-0.214 5.552 1.768 1.116 2.044 0.364 4.606-1.682 5.722zM946.952 476.924l-11.17 7.44c-0.040 0.026-0.094 0.060-0.134 0.084-1.646 0.99-3.784 0.458-4.772-1.188-0.992-1.644-0.46-3.782 1.186-4.772l11.5-6.92c1.442-0.866 3.332-0.456 4.272 0.96 0.97 1.458 0.574 3.426-0.882 4.396z" />
<glyph unicode="&#xe912;" glyph-name="planting" d="M137.28 404c-6.88 5.6-7.2 16.16-1.28 22.72 5.76 6.24 15.36 7.2 21.76 1.76 13.92-11.36 29.12-21.28 45.44-29.6 8.16-2.24 16-5.28 23.68-8.64 3.84 16.48-0.32 34.24-11.84 47.36l-3.040 3.52c-13.12 14.88-30.88 24.64-50.24 27.68l-55.84 8.64c-8.48 1.28-16.8-2.24-21.76-9.28-4.96-7.2-5.44-16.32-1.28-24l28.64-51.52c11.84-21.44 32.32-36.64 56-41.76 3.52-0.8 7.040-1.12 10.56-1.12 11.2 0 21.76 4.16 30.24 11.040-8.8 4.48-15.68 7.52-15.68 7.52-19.84 9.92-38.4 21.92-55.36 35.84zM444.32 565.6c-4.96 7.52-13.44 11.52-22.72 10.080l-61.44-8.64c-20.8-2.88-40-12.48-54.080-27.2l-3.36-3.52c-13.12-13.6-17.6-32-12.96-49.12 4.64 1.76 9.28 3.36 14.24 4.64 0 0 37.6 23.36 54.56 36.8 6.88 5.44 16.64 4.64 22.24-2.4 5.76-7.2 4.96-18.24-2.24-24-19.040-15.040-39.84-28-62.4-38.56 0 0-3.52-1.44-8.48-3.68 9.44-7.84 21.6-12.32 34.4-12.32 3.52 0 7.2 0.32 10.88 1.12 25.44 4.96 47.52 20 60.48 41.28l31.52 51.52c4.48 7.36 4.32 16.48-0.32 23.84zM208.16 575.84s-43.040 51.36-67.2 72c-6.72 5.76-8.16 16-2.88 23.2 5.44 7.52 15.68 9.12 22.72 3.2 26.080-22.24 49.92-48.16 71.36-77.12 2.56-2.24 4.96-4.64 7.36-7.2 12.16 19.040 13.92 44.48 3.68 66.56-14.24 30.88-39.68 54.24-69.92 64.16l-77.12 25.28c-9.12 3.040-18.56 0.48-25.12-6.4-6.72-7.2-8.64-17.92-4.96-27.52l31.52-79.2c10.080-25.44 28-46.88 50.56-60.32l5.6-3.36c10.56-6.4 21.92-9.44 33.12-9.44 10.24 0 20.32 2.88 29.44 8-2.72 3.2-5.44 5.92-8.16 7.84zM432 96h-21.6l4.16 16.48c3.2 13.12 0.8 26.88-6.88 38.080-7.52 10.88-19.2 18.24-32.16 20.32l2.24 7.52c8 26.24-5.12 54.24-30.56 65.28l-21.28 9.28-16.16 15.68c-10.56 10.24-23.84 16.16-37.6 18.24v155.2c8.8 6.24 25.44 13.92 35.52 18.24-4.32 3.52-8.16 7.36-11.040 12.16l-0.96 1.44c-2.56 4.32-4.48 8.8-5.76 13.44-6.080-2.24-12.16-4.8-17.92-7.84v19.36c0 30.88-8.8 59.2-25.12 81.92-2.4 3.36-4.8 6.24-7.36 9.12-2.080-3.2-4.32-6.4-7.040-9.28l-1.6-1.76c-4.32-4.64-9.28-8-14.56-11.040 1.6-1.76 3.040-3.52 4.64-5.76 12.48-17.28 19.2-39.2 19.2-63.2v-115.2c-4.32 2.4-8.64 4.32-13.12 6.24-1.12-4.8-2.72-9.44-5.28-13.92l-0.8-1.44c-3.2-5.76-7.68-10.24-12.48-14.24 10.56-5.28 23.84-12.48 31.68-18.72v-57.6c-8-2.72-15.36-6.72-22.080-12.48l-16-3.84c-18.56-4.48-34.080-16-43.84-32.16-9.44-15.68-12.16-34.24-7.52-51.84l0.96-3.68-45.12-10.72c-14.080-3.36-24.8-14.080-28-27.84l-10.88-45.76h-19.36c-8.8 0-16-7.2-16-16s7.2-16 16-16h383.68c8.8 0 16 7.2 16 16s-7.2 16-16 16zM224 144c-8.8 0-16 7.2-16 16s7.2 16 16 16 16-7.2 16-16-7.2-16-16-16zM272 192c-8.8 0-16 7.2-16 16s7.2 16 16 16 16-7.2 16-16-7.2-16-16-16zM304 112c-8.8 0-16 7.2-16 16s7.2 16 16 16 16-7.2 16-16-7.2-16-16-16zM720 768c0-53.019-42.981-96-96-96s-96 42.981-96 96c0 53.019 42.981 96 96 96s96-42.981 96-96zM928.16 142.24h-207.84l55.68 81.12c28.8 34.56 41.92 79.84 36 124.16l-32.64 241.6c-2.56 18.24-11.2 35.2-24.48 47.36-13.44 12.48-30.88 19.36-49.12 19.36-20.8 0-40.8-9.28-54.88-25.28-15.040-17.12-21.76-40.16-18.56-63.2l3.52-26.72-72.8-74.72-92.32-21.12c-14.72-3.36-27.040-13.28-33.6-27.040-6.080-12.64-6.4-26.88-1.44-39.84l-35.52-35.52-12.64 12.64c-6.24 6.24-16.32 6.24-22.56 0l-12.64-12.64c-18.24-18.24-30.88-40.16-35.68-61.76l-7.2-32.64c-1.12-5.28 0.48-10.88 4.32-14.72 3.040-3.040 7.040-4.64 11.36-4.64 1.12 0 2.24 0 3.52 0.32l32.64 7.2c21.6 4.8 43.52 17.44 61.76 35.68l12.64 12.64c6.24 6.24 6.24 16.32 0 22.56l-12.64 12.64 32.96 32.96c7.68-4.8 16.64-7.36 25.76-7.36 3.68 0 7.2 0.48 10.88 1.28l113.28 25.76c2.72 0.64 5.12 1.92 7.2 3.84l40.48 36.8 16-118.4c2.080-15.84-2.24-31.52-12.32-44.16l-80.64-101.92c-8.64-11.040-13.44-24.64-13.44-38.4 0-34.4 28.48-62.4 63.36-62.4h302.080c12.8 0 24.8 4.96 33.44 13.6 9.28 8.8 14.4 20.64 14.4 33.6 0 25.92-21.44 47.2-47.84 47.2z" />
<glyph unicode="&#xe913;" glyph-name="seeding" d="M505.304 584.021c9.633-3.778 19.084 5.469 15.89 15.308-21.916 67.538-101.269 92.732-175.036 32.813-38.802-31.522-53.384-38.22-53.751-38.389 25.58-25.576 54.805-111.4 118.582-120.892 70.256-12.738 132.437 56.383 81.564 88.013-33.457 20.799-72.849 32.881-115.073 32.881 44.267 9.978 88.458 5.7 127.825-9.734zM823.436 632.146c-127.336 103.432-208.543-59.682-158.065-43.513 35.851 11.484 75.044 13.985 114.358 5.124-66.61 0-128.012-30.526-168.95-80.214 3.363 78.085 8.448 126.961 14.344 163.319 34.026 1.17 79.375 28.646 104.28 76.725 42.935 76.837 23.024 155.621 16.617 205.334-33.548-32.669-180.098 5.61-238.194-93.943-25.663-43.977-18.204-97.49 8.793-136.652 8.546-12.397 28.98-6.449 29.562 8.596 2.536 65.447 35.109 114.895 95.832 142.283-27.248-35.305-45.139-74.832-54.382-115.685-14.366-63.64-29.373-105.388-34.882-308.229-0.56-20.571 16.105-37.599 36.683-37.34 14.896 0.187 27.657 9.64 33.386 23.392 8.713 20.916 22.894 42.563 45.971 62.396 21.93-24.24 55.3-37.137 89.829-30.876 63.506 9.45 93.143 95.462 118.58 120.896-0.372 0.164-14.956 6.862-53.758 38.387zM1010.623 379.407c-39.808 27.008-83.133 7.762-103.030-3.726l-249.692-182.75-146.2-0.032-36.55 36.55h134.267c40.381 0 85.605 26.302 85.605 73.116 0 49.701-45.224 73.116-85.605 73.116h-50.316c-37.377 0-81.057-3.333-111.855 13.153-29.261 14.89-62.955 23.362-98.923 23.362-60.397 0-114.452-24.077-151.493-62.048l-196.831-193.768 219.3-219.3 73.1 109.65h345.435c36.84 0 72.401 13.514 99.942 37.98l275.345 244.6c15.308 13.597 14.444 38.599-2.499 50.096z" />
<glyph unicode="&#xe914;" glyph-name="cutting" d="M880.989 25.809c7.044 0 11.512-12.362 16.495-7.383 4.979 4.979 12.339 11.488 9.873 20.034-1.951 6.763-17.037 3.496-17.037 10.536 0 7.028 6.845 7.028 6.845 14.060 0 7.028-8.714 7.028-8.714 14.056s12.604 7.028 12.604 14.052c0 7.028-0.554 7.028-0.554 14.056s-12.105 7.028-12.105 14.056 17.646 7.028 17.646 14.056c0 7.024-14.138 7.024-14.138 14.052 0 7.020 8.932 7.020 8.932 14.044 0 7.028-14.587 7.028-14.587 14.052 0 7.020 2.224 7.020 2.224 14.040 0 7.024-2.037 7.024-2.037 14.048 0 7.016 15.726 7.016 15.726 14.033 0 7.024 4.495 7.024 4.495 14.048 0 7.016-15.356 7.016-15.356 14.029 0 7.024 10.684 7.024 10.684 14.048s-8.128 7.024-8.128 14.044c0 7.024-0.066 7.024-0.066 14.044s-3.333 7.020-3.333 14.044-7.887 7.024-7.887 14.048c0 7.020 22.575 7.020 22.575 14.040 0 7.024-16.643 7.024-16.643 14.048 0 7.020 16.421 7.020 16.421 14.040s-6.849 7.020-6.849 14.037c0 7.024-0.886 7.024-0.886 14.044s9.26 7.020 9.26 14.040c0 7.016-7.461 7.016-7.461 14.037s-10.146 7.020-10.146 14.037c0 7.024 4.195 2.045-0.784 6.997-5.011 4.979-0.055 7.621-7.122 7.621s-7.067 0.382-14.13 0.382c-7.055 0-7.055-13.439-14.107-13.439s-7.051 6.677-14.107 6.677c-7.051 0-7.051 4.417-14.103 4.417s-7.051-10.396-14.107-10.396-7.055 9.447-14.107 9.447-7.051 12.054-14.107 12.054c-7.051 0-7.051-15.656-14.099-15.656s-7.048-1.857-14.095-1.857c-7.051 0-7.051 13.381-14.103 13.381-7.044 0-7.044-18.072-14.087-18.072-7.048 0-7.048 18.036-14.099 18.036-7.040 0-7.040 3.454-14.079 3.454-7.048 0-7.048-12.679-14.095-12.679s-7.048-7.161-14.095-7.161c-7.051 0-7.051-1.311-14.099-1.311s-7.048 23.835-14.095 23.835-7.048-7.27-14.095-7.27-7.048 6.115-14.095 6.115-7.048-10.466-14.099-10.466c-7.048 0-7.048 7.75-14.091 7.75-7.048 0-7.048 0.57-14.099 0.57-7.048 0-7.048-4.261-14.091-4.261s-7.044 4.812-14.087 4.812c-7.048 0-7.048-7.071-14.095-7.071s-7.048-4.328-14.091-4.328-7.044-9.607-14.083-9.607c-7.044 0-7.044 10.575-14.087 10.575-7.048 0-7.048-5.545-14.099-5.545-7.044 0-7.165 10.076-12.148 5.096-4.979-4.979-12.468-5.1-12.468-12.14s15.281-7.040 15.281-14.083c0-7.028 1.229-7.028 1.229-14.060 0-7.028-15.316-7.028-15.316-14.056s18.075-7.028 18.075-14.052c0-7.028-6.681-7.028-6.681-14.056s5.276-7.028 5.276-14.056-1.647-7.028-1.647-14.056c0-7.024 2.423-7.024 2.423-14.052 0-7.020-6.474-7.020-6.474-14.044 0-7.028 0.847-7.028 0.847-14.052 0-7.020-12.304-7.020-12.304-14.040 0-7.024 15.199-7.024 15.199-14.048 0-7.016-8.882-7.016-8.882-14.033 0-7.024-8.023-7.024-8.023-14.048 0-7.016 9.018-7.016 9.018-14.029 0-7.024-2.556-7.024-2.556-14.048s-4.168-7.024-4.168-14.044c0-7.024 12.011-7.024 12.011-14.044s0.347-7.020 0.347-14.044-3.898-7.024-3.898-14.048c0-7.020 7.278-7.020 7.278-14.040 0-7.024 3.208-7.024 3.208-14.048 0-7.020-4.78-7.020-4.78-14.040s1.705-7.020 1.705-14.037c0-7.024-16.803-7.024-16.803-14.044s3.454-7.020 3.454-14.040c0-7.016 16.682-7.016 16.682-14.033 0-7.020 3.059-7.020 3.059-14.037 0-7.024-22.056-13.155-17.073-18.107 5.011-4.979 11.098-0.804 18.165-0.804s7.067-4.339 14.13-4.339c7.055 0 7.055 13.002 14.107 13.002s7.051 5.53 14.107 5.53c7.051 0 7.051-2.876 14.103-2.876s7.051 5.44 14.107 5.44 7.055-23.215 14.107-23.215 7.051 7.090 14.107 7.090c7.051 0 7.051 7.609 14.099 7.609s7.048 2.63 14.095 2.63c7.051 0 7.051-0.952 14.103-0.952 7.044 0 7.044-11.032 14.087-11.032 7.048 0 7.048 14.477 14.099 14.477 7.040 0 7.040-4.332 14.079-4.332 7.048 0 7.048-12.093 14.095-12.093s7.048 9.498 14.095 9.498c7.051 0 7.051-5.771 14.099-5.771s7.048 14.848 14.095 14.848 7.048-8.686 14.095-8.686 7.048 8.394 14.095 8.394 7.048-16.499 14.099-16.499c7.048 0 7.048 18.153 14.091 18.153 7.048 0 7.048-16.651 14.099-16.651 7.048 0 7.048 9.588 14.091 9.588s7.044-10.169 14.087-10.169c7.048 0 7.048-1.44 14.095-1.44s7.048 8.402 14.091 8.402 7.044-3.934 14.083-3.934c7.044 0 7.044-0.308 14.087-0.308 7.063 0 7.063 7.477 14.111 7.477zM895.228 520.608h-9.525v-7.824h-17.826v7.824h-9.525v-7.824h-17.83v7.824h-9.525v-7.824h-17.83v7.824h-9.525v-7.824h-17.83v7.824h-9.525v-7.824h-17.83v7.824h-9.522v-7.824h-17.83v7.824h-9.525v-7.824h-17.833v7.824h-9.525v-7.824h-17.83v7.824h-9.525v-7.824h-17.826v7.824h-9.529v-7.824h-17.826v7.824h-9.525v-7.824h-17.83v7.824h-9.525v-7.824h-17.83v7.824h-9.525v-7.824h-17.833v7.824h-9.518v-7.824h-17.833v7.824h-9.525v-7.824h-17.83v7.824h-9.525v-7.824h-26.032v42.995h-27.386v26.77h-92.777v-26.77h-27.386v-18.829h-46.277v-17.576l6.322-1.292c2.053-0.421 4.012-1.034 5.92-1.74v8.37h34.036v-47.643h-7.887c-0.086-2.123-0.297-4.265-0.734-6.411-0.414-2.014-0.999-3.957-1.697-5.838h10.318v-17.49h147.507v42.995h26.032v-7.832h9.525v7.832h17.83v-7.832h9.525v7.832h17.833v-7.832h9.518v7.832h17.833v-7.832h9.525v7.832h17.83v-7.832h9.525v7.832h17.83v-7.832h9.525v7.832h17.826v-7.832h9.529v7.832h17.826v-7.832h9.525v7.832h17.83v-7.832h9.525v7.832h17.833v-7.832h9.525v7.832h17.83v-7.832h9.522v7.832h17.83v-7.832h9.525v7.832h17.83v-7.832h9.525v7.832h17.83v-7.832h9.525v7.832h17.83v-7.832h9.525v7.832h17.826v-7.832h9.525v7.832h19.063v22.458h-19.063v7.824zM343.39 558.866v10.731h65.851v-10.731zM336.455 464.001h-10.407v72.844h10.407zM360.845 464.001h-10.407v72.844h10.407zM420.031 465.792c-7.274 0-13.17 5.896-13.17 13.17s5.896 13.17 13.17 13.17 13.17-5.896 13.17-13.17-5.892-13.17-13.17-13.17zM20.265 107.016c-14.876-22.462-8.722-52.732 13.736-67.603 8.288-5.487 17.642-8.113 26.891-8.113 15.816 0 31.328 7.68 40.716 21.849 54.687 82.576 71.95 158.335 72.22 220.776l-115.566 93.702c22.43-55.99 36.057-148.79-37.997-260.611zM67.549 475.747c-12.597 2.576-23.281 11.11-28.576 22.828-5.295 11.715-4.64 25.373 1.748 36.533l71.541 124.873c7.145 12.472 20.518 20.222 34.902 20.222 6.977 0 13.88-1.842 19.956-5.331 9.311-5.334 15.992-13.982 18.805-24.339 2.814-10.361 1.42-21.197-3.914-30.512l-43.905-76.649 74.62-15.254 34.637 12.304v4.691h13.19l33.084 11.754v7.071h19.909l7.488 2.661v24.108h47.413c4.823 7.785 6.209 17.599 2.903 26.898-5.771 16.249-23.632 24.737-39.866 18.965l-103.906-36.916 4.062 69.078c0.379 6.404-1.21 12.468-4.23 17.615-3.426 10.368-9.549 19.176-18.633 24.994-28.912 18.512-80.454 16.807-117.334-31.054-50.324-66.105-72.114-112.839-90.256-198.209-2.544-18.957-0.843-34.005 3.668-46.106 2.384-10.123 7.961-19.574 16.655-26.641l176.426-143.417 63.982-202.014c6.587-20.784 25.79-34.063 46.492-34.063 4.878 0 9.842 0.738 14.739 2.291 25.681 8.132 39.909 35.55 31.776 61.231l-68.392 215.925c-2.876 9.077-8.347 17.115-15.734 23.121l-136.955 111.348c1.518 5.803 3.235 11.598 5.124 17.385zM187.193 838.512c-22.009-43.214-4.819-96.082 38.383-118.091 43.222-22.013 96.082-4.823 118.091 38.395 1.089 2.135 2.053 4.3 2.95 6.478-4.652 1.842-9.369 3.859-14.134 6.095-41.169 19.336-69.476 45.973-64.29 60.173 1.924-14.626 32.401-34.364 72.86-46.207 30.535-8.944 58.761-11.055 74.854-6.7 7.344 1.986 12.163 5.315 13.521 9.959 4.343 14.825-28.19 37.4-72.657 50.421-5.292 1.549-10.501 2.88-15.601 4.019-8.195 14.013-20.347 25.935-35.889 33.852-43.202 22.005-96.074 4.819-118.087-38.395zM284.383 472.454c3.454 16.893-7.442 33.384-24.335 36.838l-135.901 27.777 50.078 87.411c8.569 14.961 3.391 34.036-11.57 42.605-14.957 8.577-34.040 3.391-42.605-11.566l-71.541-124.873c-4.979-8.694-5.487-19.246-1.362-28.374s12.382-15.722 22.196-17.728l178.202-36.42c2.107-0.429 4.211-0.64 6.283-0.64 14.524-0.004 27.535 10.189 30.555 24.971zM740.612 547.635c5.132 3.707 4.706 13.057-3.602 24.553-8.308 11.492-26.481 17.069-26.481 17.069s-0.406-19.004 7.898-30.5c8.308-11.492 17.053-14.833 22.185-11.122zM854.461 571.986c7.957 11.738 6.973 30.723 6.973 30.723s-17.997-6.123-25.95-17.865c-7.957-11.738-8.097-21.1-2.856-24.651 5.241-3.547 13.88 0.051 21.833 11.793zM770.667 685.835s-9.416-16.514-7.59-30.578 7.922-21.166 14.2-20.35 10.361 9.237 8.534 23.301c-1.826 14.068-15.145 27.628-15.145 27.628zM629.705 742.090c-8.897 11.043-27.336 15.66-27.336 15.66s0.585-19 9.483-30.044 17.806-13.919 22.735-9.947 4.015 13.287-4.882 24.331zM576.169 571.705c2.915-5.619 12.226-6.571 24.815-0.039 12.589 6.529 20.772 23.687 20.772 23.687s-18.739 3.192-31.328-3.336-17.174-14.692-14.259-20.311zM936.429 681.823s-12.94 13.927-26.902 16.394c-13.966 2.466-22.567-1.225-23.667-7.461s5.713-12.651 19.679-15.117 30.891 6.185 30.891 6.185zM962.808 352.115c-12.468 6.755-21.794 5.971-24.811 0.406s1.42-13.806 13.892-20.565c12.468-6.755 31.261-3.898 31.261-3.898s-7.875 17.299-20.343 24.058zM992.544 275.899c-13.479-4.41-19.32-11.722-17.353-17.74 1.971-6.017 11.004-8.46 24.483-4.051s24.327 20.019 24.327 20.019-17.978 6.181-31.456 1.772zM442.016 611.172c-2.15-0.133-3.789-1.982-3.656-4.136 0.129-2.15 1.975-3.832 4.136-3.656 0.105-0.016 8.753 0.371 14.684-5.108 3.844-3.555 5.857-8.928 5.978-15.972 0.039-2.131 1.776-3.836 3.902-3.836h0.070c2.154 0.039 3.871 1.815 3.832 3.969-0.16 9.256-3.013 16.511-8.487 21.568-8.452 7.812-19.984 7.215-20.46 7.172zM448.1 628.959c-2.154-0.016-3.887-1.776-3.871-3.93 0.016-2.146 1.76-3.875 3.902-3.875h0.039c0.39 0 13.958-0.098 23.32-9.584 6.173-6.259 9.182-15.313 8.932-26.914-0.047-2.154 1.666-3.937 3.82-3.984h0.082c2.119 0 3.855 1.694 3.902 3.82 0.289 13.791-3.473 24.744-11.18 32.561-11.754 11.91-28.175 11.957-28.947 11.906zM771.58 566.604l20.229 11.445 3.883 29.497-7.738 1.018-3.379-25.638-16.834-9.533zM649.084 557.516l7.606-4.456 3.945 6.731-11.25 6.603-19.457-9.728 3.493-6.981zM949.778 424.967l7.668 1.459-4.277 22.45-16.444 7.676-3.297-7.075 12.823-5.986zM948.596 572.903l9.112 3.426-2.751 7.305-12.807-4.819-4.975-17.779-11.539-6.193 3.688-6.88 14.474 7.769zM379.002 381.936v-13.693l-8.226-13.705 6.692-4.015 9.338 15.558v11.676l12.893 8.597-4.328 6.493zM401.577 261.753l7.528 2.049-2.33 8.546 16.245 16.245-1.104 15.437-7.781-0.558 0.843-11.879-16.924-16.928zM329.486 400.324c-13.506-4.324-24.452-19.863-24.452-19.863s17.939-6.294 31.445-1.971 19.394 11.598 17.467 17.627c-1.932 6.029-10.954 8.53-24.46 4.207zM557.165 658.425l-9.135 10.431-21.584-2.876 1.026-7.734 17.439 2.322 9.081-10.376 24.155 2.841-0.917 7.754z" />
<glyph unicode="&#xe915;" glyph-name="gardener-1" d="M1008.941-5.271c0-9.035-6.024-15.059-15.059-15.059h-963.765c-7.529 0-15.059 6.024-15.059 15.059 0 7.529 7.529 15.059 15.059 15.059h15.059c0 6.024 0 13.553 0 22.588 0 27.106-4.518 64.753-28.612 103.906-3.012 4.518-3.012 10.541 0 15.059s7.529 7.529 12.047 7.529c3.012 0 70.776 1.506 105.412-90.353 33.129 91.859 100.894 90.353 105.412 90.353 6.024 0 10.541-3.012 12.047-7.529 3.012-4.518 3.012-10.541 0-15.059-31.624-51.2-30.118-103.906-27.106-126.494h72.282c0 6.024 1.506 13.553 1.506 21.082 0 27.106-4.518 66.259-28.612 103.906-3.012 4.518-3.012 10.541 0 15.059s7.529 7.529 12.047 7.529c3.012 0 70.776 1.506 105.412-90.353 33.129 91.859 100.894 90.353 105.412 90.353s10.541-3.012 12.047-7.529c3.012-4.518 3.012-10.541 0-15.059-31.624-51.2-30.118-103.906-27.106-126.494h72.282c3.012 22.588 4.518 73.788-27.106 126.494-3.012 4.518-3.012 10.541 0 15.059s7.529 7.529 12.047 7.529c3.012 0 70.776 1.506 105.412-90.353 34.635 91.859 100.894 90.353 105.412 90.353 6.024 0 10.541-3.012 12.047-7.529 3.012-4.518 3.012-10.541 0-15.059-31.624-51.2-30.118-103.906-27.106-126.494h72.282c0 6.024 1.506 13.553 1.506 21.082 0 27.106-4.518 66.259-28.612 103.906-3.012 4.518-3.012 10.541 0 15.059s7.529 7.529 12.047 7.529c3.012 0 70.776 1.506 105.412-90.353 34.635 91.859 100.894 90.353 105.412 90.353 6.024 0 10.541-3.012 12.047-7.529 3.012-4.518 3.012-10.541 0-15.059-31.624-51.2-30.118-103.906-27.106-126.494h15.059c3.012 3.012 10.541-3.012 10.541-12.047zM414.118 710.024c-57.224 0-102.4 46.682-102.4 102.4s46.682 102.4 102.4 102.4c57.224 0 102.4-46.682 102.4-102.4s-45.176-102.4-102.4-102.4zM939.671 586.541c-18.071-16.565-45.176-40.659-90.353-79.812l40.659-159.624c3.012-18.071-1.506-34.635-12.047-46.682-10.541-13.553-27.106-19.576-43.671-19.576h-109.929c-30.118 0-55.718 25.6-55.718 55.718s25.6 55.718 55.718 55.718h40.659l-33.129 123.482c-4.518 21.082 3.012 40.659 18.071 54.212l61.741 54.212c-21.082 16.565-63.247 27.106-102.4 31.624l10.541-58.729c4.518-24.094-10.541-48.188-34.635-55.718l-149.082-39.153c-27.106-6.024-51.2 9.035-58.729 34.635-6.024 25.6 9.035 51.2 34.635 58.729l105.412 28.612-7.529 49.694c-33.129 19.576-54.212 55.718-55.718 94.871-1.506 57.224 40.659 115.953 123.482 115.953 49.694 0 218.353-7.529 304.188-111.435 57.224-69.271 16.565-132.518-42.165-186.729zM590.306 485.647v-1.506c-1.506-21.082-15.059-40.659-34.635-48.188-185.224-73.788-61.741-24.094-183.718-73.788l-21.082-48.188c-3.012-7.529-10.541-10.541-19.576-7.529-7.529 3.012-10.541 12.047-7.529 19.576l9.035 19.576-28.612-12.047-21.082-48.188c-3.012-7.529-10.541-10.541-19.576-7.529-7.529 3.012-10.541 12.047-7.529 19.576l9.035 19.576-28.612-12.047-21.082-48.188c-3.012-7.529-10.541-10.541-19.576-7.529-7.529 3.012-10.541 12.047-7.529 19.576l9.035 19.576-31.624-7.529-21.082-48.188c-3.012-7.529-10.541-10.541-19.576-7.529-7.529 3.012-10.541 12.047-7.529 19.576l9.035 19.576-28.612-12.047-21.082-48.188c-3.012-7.529-10.541-10.541-19.576-7.529-7.529 3.012-10.541 12.047-7.529 19.576l9.035 19.576-22.588-9.035c-7.529-3.012-16.565 0-19.576 9.035-3.012 7.529 0 16.565 9.035 19.576l22.588 9.035-19.576 9.035c-7.529 3.012-10.541 12.047-7.529 19.576s12.047 12.047 19.576 7.529l46.682-18.071 28.612 12.047-19.576 9.035c-7.529 3.012-12.047 12.047-7.529 19.576 3.012 7.529 12.047 12.047 19.576 7.529l48.188-19.576 28.612 12.047-19.576 9.035c-7.529 3.012-10.541 12.047-7.529 19.576s12.047 12.047 19.576 7.529l48.188-19.576 28.612 12.047-19.576 9.035c-7.529 3.012-12.047 12.047-7.529 19.576 3.012 7.529 12.047 10.541 19.576 7.529l48.188-21.082 28.612 12.047-19.576 9.035c-7.529 3.012-12.047 12.047-7.529 19.576 3.012 7.529 12.047 10.541 19.576 7.529l48.188-21.082 25.6 10.541c-7.529 27.106-4.518 54.212 7.529 79.812l-37.647 52.706c-4.518 7.529-3.012 16.565 3.012 21.082s16.565 3.012 21.082-3.012l30.118-42.165c10.541 12.047 24.094 22.588 39.153 30.118 0-3.012 1.506-7.529 1.506-10.541 10.541-40.659 52.706-66.259 94.871-55.718z" />
<glyph unicode="&#xe916;" glyph-name="standing-persons-salutation-talking-one-to-each-other" d="M487.116 749.398c0-51.198-41.504-92.702-92.702-92.702s-92.702 41.504-92.702 92.702c0 51.198 41.504 92.702 92.702 92.702s92.702-41.504 92.702-92.702zM800.885 759.995c0-51.198-41.504-92.702-92.702-92.702s-92.702 41.504-92.702 92.702c0 51.198 41.504 92.702 92.702 92.702s92.702-41.504 92.702-92.702zM847.187 616.432c-7.986 37.272-45.78 55.169-77.879 56.107l-0.286-0.016c0 0-11.298-0.057-21.063-1.917-10.181-1.958-19.137-6.86-19.137-6.86-23.469-11.388-45.959-34.816-49.010-63.294-0.457-1.583-0.848-3.206-1.085-4.878-6.616-46.555-11.616-75.971-25.321-91.796-13.819-16.013-43.797-26.112-100.182-33.821-7.154-0.971-13.509-4.005-18.599-8.41-46.914 7.456-72.879 17.106-85.458 31.643-13.688 15.85-18.689 45.25-25.304 91.812-0.228 1.672-0.62 3.296-1.069 4.878-3.051 28.47-25.549 51.89-49.026 63.294 0 0-8.949 4.911-19.146 6.844-9.756 1.868-21.063 1.925-21.063 1.925l-0.269 0.016c-32.108-0.938-69.893-18.836-77.879-56.107l-42.876-200.062c-5.71-26.708 6.249-50.642 25.566-67.128l-0.171-308.752c-0.016-27.115 21.935-49.1 49.043-49.116 0.016 0 0.024 0 0.024 0 27.099 0 49.067 21.944 49.092 49.051l0.163 292.136c20.288 8.068 37.427 23.738 42.655 48.162l16.233 75.734c25.818-30.134 68.458-47.436 144.493-57.837 1.656-0.22 3.296-0.334 4.911-0.334 10.499 0 20.108 4.633 26.773 12.122 70.799 10.515 111.301 27.629 136.148 56.613l16.217-75.75c5.245-24.399 22.351-40.053 42.623-48.113l-0.114-305.188c-0.016-27.107 21.935-49.1 49.059-49.116h0.016c27.083 0 49.059 21.944 49.084 49.067l0.122 321.87c19.325 16.486 31.308 40.404 25.59 67.136l-42.876 200.087zM923.916 917.703c-55.21 0-100.1-37.875-100.1-84.446 0-18.632 9.006-35.142 14.023-42.851l-14.765-62.592 74.641 22.939c8.288-1.322 19.855-1.917 26.177-1.917 55.193 0 100.1 37.875 100.1 84.43 0.016 46.571-44.891 84.438-100.076 84.438zM923.916 770.999c-7.040 0-18.909 0.816-24.652 1.966l-2.765 0.555-42.998-13.174 8.272 35.012-3.296 4.193c-0.131 0.171-12.505 16.38-12.505 33.715 0 34.359 34.987 62.299 77.961 62.299 42.99 0 77.961-27.939 77.961-62.299-0.024-34.327-35.004-62.266-77.977-62.266zM249.341 771.97c5.009 7.693 14.039 24.179 14.039 42.843 0 46.563-44.891 84.422-100.092 84.422-6.754 0-13.329-0.563-19.7-1.64-13.166 5.417-27.882 8.508-43.488 8.508-55.193 0-100.1-37.859-100.1-84.414 0-46.571 44.907-84.463 100.1-84.463 5.049 0 13.386 0.4 20.785 1.224 12.881-5.131 27.23-8.076 42.403-8.076 6.314 0 17.889 0.604 26.169 1.917l74.641-22.939-14.757 62.617zM22.139 821.69c0 34.327 34.979 62.282 77.961 62.282 1.876 0 3.703-0.147 5.539-0.261-25.639-15.295-42.443-40.453-42.443-68.89 0-20.753 8.965-39.751 23.73-54.467-36.733 5.009-64.787 30.566-64.787 61.336zM233.687 741.869l-42.982 13.199-2.757-0.579c-5.775-1.142-17.62-1.966-24.66-1.966-42.99 0-77.945 27.956-77.945 62.29 0 34.343 34.955 62.299 77.945 62.299 42.965 0 77.945-27.956 77.945-62.299 0-17.359-12.367-33.56-12.481-33.739l-3.32-4.193 8.255-35.012z" />
<glyph unicode="&#xe917;" glyph-name="bunk" d="M60 238h584v-60h-584v60zM704 238h140v-60h-140v60zM904 238v-60h60c0 33.084-26.916 60-60 60zM964 898v-136.144c35.832-20.782 60-59.538 60-103.856v240h-60zM0 960v-182c0 44.318 24.168 83.074 60 103.856v78.144h-60zM261.334 838h-141.334c-33.084 0-60-26.916-60-60h261.334c0 33.084-26.916 60-60 60zM704 598h140v-59.994h-140v59.994zM904 598v-119.994h-260v119.994h-644v-300c0 44.318 24.168 83.074 60 103.856v76.144h584v-180h60v60h140v-60h60v180h60v-196.144c35.832-20.782 60-59.538 60-103.856v420h-120zM844 418h-140v60h140v-60zM904 718h-844v-60h904c0 33.084-26.916 60-60 60zM261.334 358h-141.334c-33.084 0-60-26.916-60-60h261.334c0 33.084-26.916 60-60 60zM0 118v-182h60v62h584v120zM704 118h140v-60h-140v60zM904 118v-120h60v-62h60v182zM844-2h60v-61.998h-60v61.998zM644-2h60v-61.998h-60v61.998z" />
<glyph unicode="&#xe918;" glyph-name="email" d="M678.784 442.752l345.216-218.24v445.696zM0 670.208v-445.696l345.216 218.24zM960 800h-896c-31.936 0-57.28-23.808-62.080-54.464l510.080-336.064 510.080 336.064c-4.8 30.656-30.144 54.464-62.080 54.464zM620.16 404.096l-90.56-59.648c-5.376-3.52-11.456-5.248-17.6-5.248s-12.224 1.728-17.6 5.248l-90.56 59.712-401.792-254.144c4.928-30.4 30.144-54.016 61.952-54.016h896c31.808 0 57.024 23.616 61.952 54.016l-401.792 254.080z" />
<glyph unicode="&#xe919;" glyph-name="phone-receiver-silhouette" d="M882.298 247.296c-61.86 52.908-124.638 84.957-185.739 32.129l-36.484-31.929c-26.694-23.177-76.325-131.472-268.218 89.273-191.853 220.465-77.684 254.791-50.95 277.769l36.684 31.969c60.781 52.948 37.843 119.603-5.994 188.216l-26.454 41.559c-44.037 68.453-91.99 113.409-152.931 60.541l-32.928-28.772c-26.934-19.621-102.22-83.399-120.482-204.56-21.979-145.378 47.354-311.855 206.199-494.517 158.645-182.742 313.973-274.532 461.11-272.933 122.281 1.319 196.128 66.935 219.226 90.791l33.048 28.812c60.781 52.828 23.018 106.616-38.882 159.644l-37.204 32.009z" />
<glyph unicode="&#xe91a;" glyph-name="shop-bag" d="M916.577 38.949l-54.332 671.614c-1.501 18.552-16.991 32.84-35.603 32.84h-106.65v8.62c0 114.675-93.303 207.978-207.991 207.978s-207.991-93.303-207.991-207.991v-8.62h-106.65c-18.61 0-34.102-14.288-35.603-32.84l-54.332-671.601c-2.143-26.446 6.931-52.784 24.91-72.264 17.992-19.503 43.52-30.684 70.036-30.684h619.259c26.529 0 52.046 11.182 70.036 30.684 17.98 19.493 27.041 45.831 24.91 72.264zM375.452 752.009c0 75.288 61.261 136.549 136.549 136.549s136.549-61.261 136.549-136.549v-8.62h-273.098zM839.146 15.122c-2.643-2.881-8.431-7.681-17.515-7.681h-619.259c-9.084 0-14.873 4.798-17.515 7.681-2.643 2.858-6.953 9.014-6.216 18.062l51.675 638.774h73.692v-177.080c0-19.731 15.992-35.721 35.721-35.721s35.721 15.992 35.721 35.721v177.080h273.098v-177.080c0-19.731 15.992-35.721 35.721-35.721 19.731 0 35.721 15.992 35.721 35.721v177.080h73.692l51.675-638.786c0.742-9.049-3.579-15.192-6.211-18.050z" />
<glyph unicode="&#xe91b;" glyph-name="search" d="M1013.806-3.646l-276.563 276.567c-0.016 0.016-0.016 0.040 0 0.054 0 0 0 0 0 0 59.199 69.819 93.6 157.286 97.825 248.728 11.9 247.737-185.239 447.154-433.095 437.994-218.32-8.264-393.405-183.349-401.669-401.669-9.158-247.857 190.26-444.997 438-433.089 91.438 4.229 178.898 38.627 248.718 97.823 0.016 0.014 0.040 0.014 0.056 0l276.569-276.567c13.959-13.743 36.417-13.569 50.16 0.39 13.593 13.807 13.593 35.965 0 49.77zM79.953 461.753c-27.227 121.537 8.338 241.484 92.576 325.72s204.181 119.803 325.722 92.574c114.99-25.769 231.582-142.351 257.353-257.329 27.243-121.551-8.326-241.512-92.568-325.754s-204.209-119.811-325.76-92.564c-114.978 25.773-231.554 142.373-257.323 257.353z" />
<glyph unicode="&#xe91c;" glyph-name="guaranteed" d="M220.086 31.94c-0.013 0-0.029 0-0.044 0-3.448 0-6.244-2.796-6.244-6.244 0-0.022 0-0.044 0-0.065v0.003l0.048-51.37c0.027-3.463 2.833-6.262 6.296-6.278l208.928-0.012c0.027 0 0.059-0.001 0.091-0.001 3.424 0 6.2 2.776 6.2 6.2 0 0.041 0 0.082-0.001 0.123v-0.006l-0.050 51.358c-0.027 3.463-2.832 6.261-6.294 6.278h-0.002zM803.914 31.94c0.013 0 0.029 0 0.044 0 3.448 0 6.244-2.796 6.244-6.244 0-0.022 0-0.044 0-0.065v0.003l-0.048-51.37c-0.027-3.463-2.833-6.262-6.296-6.278l-208.928-0.012c-0.027 0-0.059-0.001-0.091-0.001-3.424 0-6.2 2.776-6.2 6.2 0 0.041 0 0.082 0.001 0.123v-0.006l0.050 51.358c0.027 3.463 2.832 6.261 6.294 6.278h0.002zM868.642 313.424l49.026 115.722c13.622 32.158 28.014 46.318 40.58 49.298 9.274 2.2 17.522-2.55 23.37-9.494 8.9-10.572 13.134-26.6 8.618-40.306l-64.098-194.644c-8.76-26.888-19.8-60.782-40.854-75.248l-84.7-58.212c-14.068-9.486-24.359-23.648-28.692-40.22l-0.108-0.484h-138.986c6.87 27.502 13.682 55.030 20.182 82.622 5.8 24.6 11.054 44.188 22.498 58.924 11.34 14.6 29.728 25.834 62.428 34.81 1.709 0.472 3.203 1.204 4.522 2.162l-0.040-0.028 75.212 54.010c4.505 3.222 10.126 5.153 16.197 5.153 15.483 0 28.034-12.551 28.034-28.034 0-9.284-4.513-17.514-11.465-22.616l-0.078-0.055-99.958-71.8c-3.474-2.567-5.703-6.648-5.703-11.25 0-7.703 6.245-13.948 13.948-13.948 3.017 0 5.811 0.958 8.093 2.587l-0.042-0.029 99.96 71.8c14.157 10.296 23.255 26.805 23.255 45.439 0 12.229-3.918 23.543-10.568 32.754l0.113-0.165c-3.096 4.295-6.636 7.998-10.622 11.165l-0.114 0.087zM571.084 870.4h-118.168c-42.26-27.436-90.944-50.531-142.651-66.807l-4.247-1.153v-185.956c0-106.988 113.832-210.8 205.982-248.568 92.15 37.776 205.982 141.58 205.982 248.568v185.95c-55.954 17.432-104.638 40.528-149.245 69.388l2.347-1.422zM642.946 660.124l-175.638-128.2c-14.35-10.472-34.216-8.742-43.6 6.518l-50.188 81.68c-2.678 4.291-4.265 9.502-4.265 15.084 0 15.909 12.897 28.805 28.805 28.805 10.327 0 19.385-5.434 24.469-13.599l0.071-0.122 33.924-55.212 152.65 111.414c4.634 3.351 10.431 5.361 16.698 5.361 15.843 0 28.686-12.843 28.686-28.686 0-9.414-4.534-17.768-11.538-22.999l-0.075-0.054zM760.292 850.64c-61.474 14.788-119.678 42.254-172.098 77.386h-152.394c-52.42-35.13-110.624-62.6-172.098-77.386-8.847-2.105-15.325-9.94-15.325-19.288 0-0.055 0-0.11 0.001-0.165v0.008-214.718c0-76.050 41.33-145.832 92.864-199.118 45.486-47.034 108.27-90.342 170.752-110.826 62.482 20.484 125.266 63.8 170.752 110.826 51.534 53.284 92.864 123.070 92.864 199.118v214.722c0 0.046 0.001 0.1 0.001 0.154 0 9.346-6.475 17.179-15.184 19.259l-0.135 0.027zM745.984 616.478c0-120.572-123.8-235.826-228.952-276.6-1.492-0.596-3.222-0.941-5.032-0.941s-3.54 0.346-5.126 0.974l0.094-0.033c-105.16 40.782-228.952 156.032-228.952 276.6v196.424c0.020 6.391 4.32 11.773 10.183 13.43l0.099 0.024c54.040 15.098 105.098 39.132 152.31 69.326 2.281 1.694 5.152 2.712 8.26 2.712 0.008 0 0.015 0 0.023 0h126.221c2.806-0.007 5.416-0.843 7.599-2.275l-0.053 0.033c47.12-30.224 98.076-54.316 152.026-69.51 6.485-1.308 11.3-6.96 11.3-13.737 0-0.001 0-0.002 0-0.003v0zM155.358 313.424c-4.1-3.254-7.64-6.957-10.624-11.089l-0.112-0.163c-6.536-9.047-10.455-20.36-10.455-32.589 0-18.634 9.098-35.143 23.094-45.327l0.161-0.111 99.96-71.8c2.24-1.6 5.033-2.558 8.051-2.558 7.703 0 13.948 6.245 13.948 13.948 0 4.602-2.228 8.683-5.665 11.223l-0.038 0.027-99.958 71.8c-7.306 5.131-12.022 13.521-12.022 23.012 0 15.483 12.551 28.034 28.034 28.034 6.276 0 12.071-2.062 16.743-5.546l-0.074 0.053 75.216-54.026c1.279-0.93 2.773-1.662 4.384-2.111l0.098-0.023c32.7-8.976 51.088-20.2 62.428-34.81 11.444-14.736 16.706-34.322 22.498-58.924 6.5-27.6 13.312-55.12 20.182-82.622h-138.986c-4.441 17.056-14.732 31.218-28.553 40.547l-0.247 0.157-84.7 58.212c-21.054 14.464-32.098 48.368-40.858 75.264l-64.098 194.644c-4.516 13.708-0.282 29.734 8.618 40.306 5.848 6.944 14.096 11.692 23.37 9.494 12.566-2.98 26.958-17.14 40.58-49.298z" />
<glyph unicode="&#xe91d;" glyph-name="gardening-1" d="M329.23 328.043l-25.944-10.844c-23.513-9.827-34.605-36.854-24.777-60.367 9.875-23.627 36.961-34.561 60.367-24.777l123.364 51.562-52.443-4.822c-35.633-3.276-67.897 17.651-80.566 49.247zM967.918 169.541c-0.13 0-0.26 0-0.387 0h-108.625c92.327 76.104 87.545 71.576 89.351 73.21 17.675 15.983 22.305 41.945 12.45 63.64l-139.775 307.732c-15.761 34.037-56.27 49.056-90.495 33.202-50.138-23.224 86.265 39.956-110.291-51.085-34.157-15.821-49.026-56.338-33.204-90.497l14.996-32.376 44.695 44.312-60.882-97.925-187.41-17.229c-25.377-2.333-44.056-24.795-41.723-50.172 2.335-25.407 24.829-44.058 50.172-41.723l210.258 19.329c14.391 1.322 27.332 9.312 34.96 21.586l72.994 117.408-45.075-134.765c-6.599-19.73-23.793-32.901-43.133-35.374l-105.665-81.455c-42.275-32.589-19.153-100.516 34.245-100.516h35.903c3.136 27.694 19.514 51.472 42.628 64.739 179.95 102.589 169.12 96.775 173.898 98.962l-151.253-124.632c-18.172-14.974-25.904-39.63-18.372-61.941 7.91-23.429 29.899-37.475 53.534-37.267h266.58c30.979 0.21 55.921 26.395 55.711 57.375-0.21 30.848-25.283 55.463-56.082 55.463zM657.167 646.821c50.566 23.421 72.569 83.399 49.149 133.962-23.455 50.642-83.47 72.537-133.962 49.149-50.566-23.419-72.569-83.397-49.149-133.962 23.457-50.642 83.47-72.537 133.962-49.149zM321.72 112.277c-3.232 0.34-6.39 0.25-9.42-0.22-10.638-1.646-21.472 1.854-28.868 9.673-10.948 11.573-26.447 18.795-43.637 18.795-0.078 0-0.158 0-0.236 0-12.48-0.048-23.931 6.284-30.49 16.902-9.969 16.135-26.667 27.664-46.175 30.698 0.697 22.335-3.599 93.627 13.123 194.429l54.239 52.519c20.038-1.276 50.42 0.372 68.608 18.56 28.906 28.904 16.041 88.634 16.041 88.634s-59.73 12.865-88.636-16.041c-17.413-17.413-19.662-45.996-18.703-65.983l-20.024-19.389c8.553 37.223 19.267 74.015 32.232 110.227 3.044 8.505-0.651 18.23-8.934 21.833-9.072 3.947-19.438-0.635-22.726-9.797-5.405-15.064-10.404-30.232-15.072-45.478l-13.918 19.183c2.023 13.107 2.031 29.569-6.623 41.601-16.742 23.275-59.542 21.122-59.542 21.122s-15.655-39.892 1.087-63.167c8.751-12.166 24.618-17.379 37.774-19.588l29.483-40.637c-10.64-40.934-18.687-82.424-24.068-124.321l-27.078 26.683c1.047 20.016-1.049 49.068-18.667 66.686-28.906 28.906-88.636 16.041-88.636 16.041s-12.865-59.73 16.041-88.634c17.97-17.97 47.849-19.796 67.887-18.604l45.866-45.197c-4.973-58.649-3.274-97.011-3.619-124.233-22.071-8.473-38.757-28.511-42.087-52.775-0.060-0.439-0.116-0.879-0.168-1.316-1.009-8.599-9.841-14.016-17.962-11.016-7.225 2.668-15.22 3.751-23.563 2.82-21.751-2.431-39.808-18.765-44.17-40.217-0.036-0.178-0.072-0.358-0.106-0.535-2.493-12.917 7.67-24.837 20.827-24.837h310.766c12.27 0 22.031 10.412 21.1 22.648-0.022 0.278-0.046 0.557-0.074 0.835-1.652 16.744-15.136 30.338-31.87 32.094z" />
<glyph unicode="&#xe91e;" glyph-name="trophy" d="M136.411 754.103c31.161-15.669 67.39-17.851 100.206-6.034 26.064 8.97 48.182 26.754 62.537 50.286-11.337 1.097-22.126 2.743-32.731 4.571l-32.366-19.566c-2.869-1.743-6.152-2.69-9.509-2.743-8.269-0.081-15.563 5.398-17.789 13.361s1.169 16.431 8.281 20.65l1.097 0.549c-12.8 4.023-24.686 8.411-35.474 12.983l-37.851-9.326c-1.499-0.352-3.032-0.536-4.571-0.549-8.383 0.065-15.669 5.773-17.737 13.897-1.886 8.393 2.395 16.953 10.24 20.48-11.147 6.442-21.95 13.461-32.366 21.029-7.978 6.211-9.411 17.713-3.2 25.691s17.713 9.411 25.691 3.2c11.814-8.642 24.286-16.346 37.303-23.040l-1.28 9.326c-1.225 9.9 5.71 18.955 15.587 20.352s19.051-5.38 20.619-15.232l4.571-33.097c9.509-3.84 19.931-7.68 31.086-11.154l-2.194 4.754c-4.29 9.14-0.361 20.027 8.777 24.32 9.143 4.204 19.969 0.297 24.32-8.777l14.629-31.269c12.888-2.281 25.89-3.868 38.949-4.754 4.234 18.184 2.961 37.216-3.657 54.674-10.253 25.431-30.18 45.753-55.406 56.503-26.733 15.179-59.382 15.593-86.491 1.097-26.817-13.099-57.070-17.448-86.491-12.434-16.362 2.6-32.501 6.451-48.274 11.52-6.554 1.963-13.656 0.103-18.406-4.82s-6.355-12.087-4.158-18.567c18.798-57.216 55.479-131.639 126.062-167.881zM787.383 638.354c32.816-11.816 69.045-9.635 100.206 6.034 70.29 36.114 106.971 110.245 125.641 168.229 2.042 6.455 0.319 13.51-4.468 18.298s-11.842 6.51-18.298 4.468c-15.581-4.95-31.51-8.734-47.653-11.319-29.422-4.921-59.647-0.576-86.491 12.434-12.436 6.333-26.1 9.889-40.046 10.423-16.109-0.608-31.92-4.53-46.446-11.52-25.225-10.75-45.153-31.072-55.406-56.503-6.618-17.458-7.891-36.49-3.657-54.674 13.059 0.922 26.060 2.534 38.949 4.827l14.629 31.269c2.699 6.039 8.449 10.149 15.036 10.749s12.985-2.405 16.73-7.857 4.254-12.501 1.331-18.435l-2.194-4.754c11.154 3.474 21.394 7.131 31.086 11.154l4.571 33.097c1.568 9.852 10.742 16.629 20.619 15.232s16.812-10.452 15.587-20.352l-1.28-9.509c12.993 6.704 25.409 14.471 37.12 23.223 5.161 4.050 12.091 5.040 18.179 2.595s10.41-7.951 11.337-14.446c0.927-6.495-1.681-12.991-6.842-17.041-10.415-7.568-21.219-14.587-32.366-21.029 7.845-3.527 12.126-12.087 10.24-20.48-2.069-8.124-9.354-13.832-17.737-13.897-1.48 0.002-2.954 0.186-4.389 0.549l-38.034 9.326c-10.789-4.571-22.674-8.96-35.474-12.983l1.097-0.549c7.112-4.219 10.507-12.686 8.281-20.65s-9.521-13.442-17.789-13.361c-3.357 0.053-6.639 1-9.509 2.743l-32.366 19.566c-10.606-1.829-21.394-3.474-32.731-4.571 14.356-23.531 36.473-41.316 62.537-50.286zM237.714 27.429h548.571v128h-548.571zM457.143 100.571h219.429c10.099 0 18.286-8.187 18.286-18.286s-8.187-18.286-18.286-18.286h-219.429c-10.099 0-18.286 8.187-18.286 18.286s8.187 18.286 18.286 18.286zM347.429 100.571h36.571c10.099 0 18.286-8.187 18.286-18.286s-8.187-18.286-18.286-18.286h-36.571c-10.099 0-18.286 8.187-18.286 18.286s8.187 18.286 18.286 18.286zM1021.989-37.486l-146.286 292.571c-3.059 6.185-9.374 10.088-16.274 10.057h-694.857c-6.9 0.031-13.215-3.872-16.274-10.057l-146.286-292.571c-2.852-5.66-2.57-12.393 0.745-17.794s9.191-8.701 15.529-8.72h987.429c6.338 0.019 12.214 3.319 15.529 8.72s3.597 12.134 0.745 17.794zM822.857 27.429c-0.060-20.173-16.399-36.511-36.571-36.571h-548.571c-20.173 0.060-36.511 16.399-36.571 36.571v128c0.060 20.173 16.399 36.511 36.571 36.571h548.571c20.173-0.060 36.511-16.399 36.571-36.571zM493.714 539.429v-182.857h-219.429c-10.099 0-18.286-8.187-18.286-18.286v-36.571h512v36.571c0 10.099-8.187 18.286-18.286 18.286h-219.429v128c0 177.371 88.137 201.326 164.754 202.423 10.24 0.183 20.114 0.731 29.806 1.646-2.542 4.046-4.802 8.261-6.766 12.617-3.295 7.415-5.867 15.131-7.68 23.040-5.12-0.366-10.423-0.731-15.726-0.731-82.834-1.097-139.703-30.903-171.154-90.331-24.686 160.914-115.749 198.949-194.194 200.046-5.251-0.034-10.5 0.21-15.726 0.731-1.813-7.909-4.385-15.625-7.68-23.040-1.963-4.356-4.224-8.571-6.766-12.617 9.691-0.914 19.566-1.463 29.806-1.646 109.349-1.463 164.754-88.137 164.754-257.28z" />
<glyph unicode="&#xe91f;" glyph-name="plant" d="M946.4 352.48c-14.080 15.359-35.36 20.48-54.24 13.76-24.96 21.44-63.52 30.56-99.52 21.44-17.44 25.119-49.44 40.64-85.279 40.64-12.16 0-23.841-1.76-35.2-5.44-10.72 15.841-27.36 28-47.040 34.88-9.11 4.274-21.215 4.3-30.241 7.198 4.354 38.58 20.816 84.068 44.961 120.801 27.679 43.040 70.719 87.521 136.96 128.32 7.504 4.363 17.244 2.503 21.92-5.12 4.641-7.519 2.4-17.439-5.12-22.080-60.8-37.6-100.48-77.76-126.080-116.159-5.787-8.913-11.773-18.679-16.319-27.681 21.6-9.439 45.6-14.56 69.92-14.56 53.12 0 106.88 24.8 136.96 83.359 40.16 78.56 42.24 104.641 44 127.841 1.44 19.68 2.88 36.64 32.8 92.8 5.121 8.736-0.499 21.216-10.56 23.2-10.879 2.4-265.12 57.44-345.6-120.48-29.92-65.92-13.44-121.6 22.24-158.080-14.4-28.96-22.4-56.8-26.4-81.44-13.119 19.040-30.399 43.040-50.399 67.359 29.44 32.16 33.6 78.88 11.040 130.56-63.84 146.399-294.080 118.56-303.84 117.279-12.68-1.091-18.568-17.718-9.76-26.72 22.88-24.479 24.959-53.599 27.2-87.2 3.040-45.92 6.56-97.92 67.681-140.48 45.335-30.948 103.18-41.566 154.56-26.080-28.201 33.686-70.768 75.757-105.76 87.040-8.48 2.88-12.96 12-10.080 20.32 2.709 8.4 12.211 13.168 20.48 9.921 68.592-24.212 138.803-116.379 180.481-176.32 1.623-3.843 9.917-9.926 2.88-10.080-23.163-5.601-45.002-18.828-58.241-38.081-43.704 14.711-101.905-2.692-122.719-40.001-13.474-2.902-87.624-48.692-100.961-55.518 0.001-0.001-53.759-0.001-53.759-0.001v17.6c0 17.6-14.4 32-32 32h-111.361c-8.8 0-16-7.2-16-16v-264.48c0-8.8 7.2-16 16-16h111.36c17.6 0 32 14.4 32 32v14.881h46.399l299.040-93.601c21.993-6.846 46.447-2.661 65.12 11.36 0 0 305.6 231.2 305.6 231.2 23.932 17.126 27.463 54.688 6.881 75.84zM920.16 302.24l-305.601-231.2c-10.399-7.84-24-10.24-36.319-6.399l-301.28 94.239c-1.44 0.48-3.040 0.801-4.64 0.801h-48.96v136h58.080c2.72 0 5.6 0.64 8 2.079l86.72 49.921c11.326 6.43 24.149 8.585 36.96 6.56 0 0 301.44-52.481 301.44-52.481 27.793-5.283 24.559-46.723-4.16-47.039-54.019 0.001-209.742-0.002-261.321-0.002-20.966-0.331-21.079-31.643 0.001-32-0.001 0 72.043 0 72.043 0l67.038-56.959c14.399-12.48 35.68-13.76 51.84-3.199l257.12 170.72c20.643 15.041 43.26-15.922 23.040-31.040z" />
<glyph unicode="&#xe920;" glyph-name="plant-a-tree" d="M968.272 265.276c-220.412-166.536-226.316-185.782-278.996-201.45-63.12-18.636-124.494-26.582-147.766-26.582-35.894 0-71.056 10.988-100.464 31.604-48.266 32.128-54.842 42.718-76.708 46.882-2.318 8.5 0.1 1.282-99.208 208.252l52.952 32.86c62.686 38.824 146.196 22.814 189.94-36.524 7.64-10.256 19.674-16.326 32.546-15.592l130.708 5.546c34.044 1.032 59.558-23.438 64.36-52.012l104.754 78.488c39.128 29.63 92.312 27.052 128.51-1.988 22-17.684 22.314-51.666-0.628-69.484zM315.862 65.612l-129.678-61.668c-17.388-8.37-38.27-1.060-46.64 16.33l-97.518 202.594c-8.37 17.388-1.058 38.27 16.33 46.64l129.678 61.668c17.388 8.37 38.27 1.060 46.64-16.33l97.516-202.594c8.37-17.388 1.060-38.268-16.328-46.64zM648.254 471.96c24.592-11.616 107.58-53.58 169.218-113.126l-70.116-52.534c-31.956 39.944-75.608 34.958-77.44 35.372l-131.44-5.652c-1.884 0-3.872 1.152-5.232 2.93-13.918 18.836-31.5 34.534-51.384 46.046 52.012 42.278 109.778 72.522 134.474 84.556 4.646 37.164 3.55 75.478-6.906 112.080-196.686-3.988-293.556 99.304-293.96 286.112 0 15.28 12.034 27.522 27.314 27.732 189.766 2.47 289.99-95.846 290.402-286.008 9.034 123.272 77.908 189.544 214.74 189.94 11.512 0.104 20.826-9.104 20.93-20.512 1.6-139.026-67.776-218.398-215.368-218.822-1.988-4.29-3.768-8.79-5.338-13.29 2.828-22.604 3.036-47.51 0.106-74.824z" />
<glyph unicode="&#xe921;" glyph-name="check-1" d="M879.347 737.816c18.679-14.367 22.174-41.155 7.804-59.833l-426.667-554.668c-7.484-9.728-18.799-15.765-31.053-16.559-12.252-0.798-24.253 3.725-32.935 12.403l-213.333 213.333c-16.662 16.666-16.662 43.678 0 60.343 16.663 16.661 43.677 16.661 60.34 0l178.973-178.974 397.040 516.15c14.366 18.678 41.156 22.172 59.831 7.804z" />
<glyph unicode="&#xe922;" glyph-name="check-circle" d="M512-53.76c134.042 0 259.994 52.224 354.816 146.944 94.72 94.822 146.944 220.774 146.944 354.816s-52.224 259.994-146.944 354.816c-94.822 94.72-220.774 146.944-354.816 146.944s-259.994-52.224-354.816-146.944c-94.72-94.822-146.944-220.774-146.944-354.816s52.224-259.994 146.944-354.816c94.822-94.72 220.774-146.944 354.816-146.944zM201.523 758.477c82.944 82.944 193.126 128.614 310.477 128.614s227.533-45.67 310.477-128.614c82.944-82.944 128.614-193.126 128.614-310.477s-45.67-227.533-128.614-310.477c-82.944-82.944-193.126-128.614-310.477-128.614s-227.533 45.67-310.477 128.614c-82.944 82.944-128.614 193.126-128.614 310.477s45.773 227.533 128.614 310.477zM385.536 197.12c0.307 0 0.614 0 1.024 0 8.499 0 16.691 3.482 22.63 9.626l391.987 407.654c11.981 12.493 11.571 32.358-0.922 44.339s-32.358 11.571-44.339-0.922l-367.821-382.566-150.118 177.357c-11.162 13.21-31.027 14.848-44.237 3.686s-14.848-31.027-3.686-44.237l172.442-203.878c5.837-6.758 14.234-11.059 23.040-11.059z" />
<glyph unicode="&#xe923;" glyph-name="comment" d="M1013.76 519.782c0-64.922-22.426-124.928-67.174-180.019-44.851-55.091-105.677-98.611-182.579-130.458-76.902-31.949-160.87-47.923-252.006-47.923-26.112 0-53.248 1.536-81.203 4.506-73.933-65.331-159.744-110.49-257.638-135.475-18.33-5.222-39.526-9.318-63.795-12.288-6.349-0.717-12.083 0.922-17.101 5.018s-8.294 9.523-9.83 16.282v0.512c-1.126 1.536-1.229 3.686-0.307 6.758 0.922 2.97 1.331 4.813 1.126 5.632-0.205 0.717 0.614 2.56 2.56 5.325l3.379 5.018c0 0 1.331 1.536 3.891 4.71 2.662 3.174 4.096 4.813 4.506 5.018 2.662 2.97 8.397 9.421 17.408 19.354s15.36 16.998 19.354 21.299c3.891 4.301 9.728 11.674 17.408 22.118s13.722 19.968 18.227 28.57 9.523 19.558 15.155 33.075 10.445 27.648 14.541 42.598c-58.573 33.178-104.858 74.342-138.65 123.187-33.792 48.947-50.688 101.376-50.688 157.389 0 48.538 13.21 94.925 39.731 139.162s62.157 82.432 107.008 114.483c44.851 32.154 98.202 57.549 160.154 76.39s126.976 28.262 194.867 28.262c91.136 0 175.104-15.974 252.006-47.923s137.728-75.366 182.579-130.458c44.646-55.194 67.072-115.2 67.072-180.122v0z" />
<glyph unicode="&#xe924;" glyph-name="down-arrow" d="M512 256c-8.184 0-16.376 3.128-22.624 9.376l-320 320c-12.504 12.504-12.504 32.752 0 45.248s32.752 12.504 45.248 0l297.376-297.376 297.376 297.376c12.504 12.504 32.752 12.504 45.248 0s12.504-32.752 0-45.248l-320-320c-6.248-6.248-14.44-9.376-22.624-9.376z" />
<glyph unicode="&#xe925;" glyph-name="up-arrow" d="M512 640c8.184 0 16.376-3.128 22.624-9.376l320-320c12.504-12.504 12.504-32.752 0-45.248s-32.752-12.504-45.248 0l-297.376 297.376-297.376-297.376c-12.504-12.504-32.752-12.504-45.248 0s-12.504 32.752 0 45.248l320 320c6.248 6.248 14.44 9.376 22.624 9.376z" />
<glyph unicode="&#xe926;" glyph-name="right-arrow3" d="M704 448c0-8.184-3.128-16.376-9.376-22.624l-320-320c-12.504-12.504-32.752-12.504-45.248 0s-12.504 32.752 0 45.248l297.376 297.376-297.376 297.376c-12.504 12.504-12.504 32.752 0 45.248s32.752 12.504 45.248 0l320-320c6.248-6.248 9.376-14.44 9.376-22.624z" />
<glyph unicode="&#xe927;" glyph-name="left-arrow" d="M320 448c0 8.184 3.128 16.376 9.376 22.624l320 320c12.504 12.504 32.752 12.504 45.248 0s12.504-32.752 0-45.248l-297.376-297.376 297.376-297.376c12.504-12.504 12.504-32.752 0-45.248s-32.752-12.504-45.248 0l-320 320c-6.248 6.248-9.376 14.44-9.376 22.624z" />
<glyph unicode="&#xe928;" glyph-name="heart" d="M941.29 814.55c-53.62 53.62-124.608 82.927-200.371 82.927s-146.968-29.524-200.588-83.144l-28.004-28.004-28.438 28.438c-53.62 53.62-125.042 83.361-200.805 83.361-75.546 0-146.751-29.524-200.154-82.927-53.62-53.62-83.144-124.825-82.927-200.588 0-75.763 29.741-146.751 83.361-200.371l407.689-407.689c5.644-5.644 13.242-8.683 20.623-8.683s14.979 2.822 20.623 8.466l408.557 407.038c53.62 53.62 83.144 124.825 83.144 200.588 0.217 75.763-29.090 146.968-82.71 200.588zM899.609 454.837l-387.934-386.414-387.066 387.066c-42.549 42.549-65.994 98.992-65.994 159.125s23.228 116.576 65.777 158.907c42.332 42.332 98.774 65.777 158.69 65.777 60.133 0 116.793-23.445 159.342-65.994l49.062-49.062c11.506-11.506 29.958-11.506 41.464 0l48.627 48.627c42.549 42.549 99.209 65.994 159.125 65.994s116.358-23.445 158.907-65.777c42.549-42.549 65.777-98.992 65.777-159.125 0.217-60.133-23.228-116.576-65.777-159.125z" />
<glyph unicode="&#xe929;" glyph-name="minus" d="M0 481.758h1024v-67.516h-1024v67.516z" />
<glyph unicode="&#xe92a;" glyph-name="plus" d="M1024 481.758h-478.242v478.242h-67.516v-478.242h-478.242v-67.516h478.242v-478.242h67.516v478.242h478.242z" />
<glyph unicode="&#xe92b;" glyph-name="right-arrow" d="M743.156 728.843l-45.612-45.614 202.973-202.975h-900.517v-64.509h900.517l-202.973-202.973 45.612-45.614 280.844 280.844z" />
<glyph unicode="&#xe92c;" glyph-name="up-arrow1" d="M231.157 679.156l45.614-45.612 202.975 202.973v-900.517h64.509v900.517l202.973-202.973 45.614 45.612-280.844 280.844z" />
<glyph unicode="&#xe92d;" glyph-name="down-arrow1" d="M792.843 216.844l-45.614 45.612-202.975-202.973v900.517h-64.509v-900.517l-202.973 202.973-45.614-45.612 280.844-280.844z" />
<glyph unicode="&#xe92e;" glyph-name="left-arrow1" d="M280.844 167.157l45.612 45.614-202.973 202.975h900.517v64.509h-900.517l202.973 202.973-45.612 45.614-280.844-280.844z" />
<glyph unicode="&#xe92f;" glyph-name="right-arrow1" d="M266.84-64c-5.547 0-11.095 2.124-15.32 6.349-8.473 8.473-8.473 22.168 0 30.641l474.999 474.999-474.999 474.999c-8.473 8.473-8.473 22.168 0 30.641s22.168 8.473 30.641 0l490.32-490.298c8.473-8.473 8.473-22.168 0-30.641l-490.32-490.341c-4.247-4.226-9.773-6.349-15.32-6.349z" />
<glyph unicode="&#xe930;" glyph-name="up-arrow11" d="M1024 202.84c0-5.547-2.124-11.095-6.349-15.32-8.473-8.473-22.168-8.473-30.641 0l-474.999 474.999-474.999-474.999c-8.473-8.473-22.168-8.473-30.641 0s-8.473 22.168 0 30.641l490.298 490.32c8.473 8.473 22.168 8.473 30.641 0l490.341-490.32c4.226-4.247 6.349-9.773 6.349-15.32z" />
<glyph unicode="&#xe931;" glyph-name="down-arrow11" d="M0 693.16c0 5.547 2.124 11.095 6.349 15.32 8.473 8.473 22.168 8.473 30.641 0l474.999-474.999 474.999 474.999c8.473 8.473 22.168 8.473 30.641 0s8.473-22.168 0-30.641l-490.298-490.32c-8.473-8.473-22.168-8.473-30.641 0l-490.341 490.32c-4.226 4.247-6.349 9.773-6.349 15.32z" />
<glyph unicode="&#xe932;" glyph-name="left-arrow11" d="M757.16 960c5.547 0 11.095-2.124 15.32-6.349 8.473-8.473 8.473-22.168 0-30.641l-474.999-474.999 474.999-474.999c8.473-8.473 8.473-22.168 0-30.641s-22.168-8.473-30.641 0l-490.32 490.298c-8.473 8.473-8.473 22.168 0 30.641l490.32 490.341c4.247 4.226 9.773 6.349 15.32 6.349z" />
<glyph unicode="&#xe933;" glyph-name="right-arrow2" d="M1024 456.383c0 28.475-10.889 55.218-31.026 75.356l-295.295 295.432c-22.256 22.256-58.339 22.256-80.55 0-22.279-22.256-22.233-58.499 0-80.777l240.874-240.783h-801.418c-31.482-0.023-56.585-25.832-56.585-57.337 0-0.068 0-0.569 0-0.638 0-31.482 25.103-57.474 56.585-57.474h801.441l-240.829-240.646c-22.279-22.279-22.279-58.408 0-80.663 22.256-22.301 58.339-22.279 80.595 0.023l295.181 295.455c20.16 20.092 31.026 46.904 31.026 75.379 0 2.802 0 13.873 0 16.675z" />
<glyph unicode="&#xe934;" glyph-name="down-arrow2" d="M520.383-64c28.475 0 55.218 10.889 75.356 31.026l295.432 295.295c22.256 22.256 22.256 58.339 0 80.55-22.256 22.279-58.499 22.233-80.777 0l-240.783-240.874v801.418c-0.023 31.482-25.832 56.585-57.337 56.585-0.068 0-0.569 0-0.638 0-31.482 0-57.474-25.103-57.474-56.585v-801.441l-240.646 240.829c-22.279 22.279-58.408 22.279-80.663 0-22.301-22.256-22.279-58.339 0.023-80.595l295.455-295.181c20.092-20.16 46.904-31.026 75.379-31.026 2.802 0 13.873 0 16.675 0z" />
<glyph unicode="&#xe935;" glyph-name="up-arrow2" d="M503.617 960c-28.475 0-55.218-10.889-75.356-31.026l-295.432-295.295c-22.256-22.256-22.256-58.339 0-80.55 22.256-22.279 58.499-22.233 80.777 0l240.783 240.874v-801.418c0.023-31.482 25.832-56.585 57.337-56.585 0.068 0 0.569 0 0.638 0 31.482 0 57.474 25.103 57.474 56.585v801.441l240.646-240.829c22.279-22.279 58.408-22.279 80.663 0 22.301 22.256 22.279 58.339-0.023 80.595l-295.455 295.181c-20.092 20.16-46.904 31.026-75.379 31.026-2.802 0-13.873 0-16.675 0z" />
<glyph unicode="&#xe936;" glyph-name="left-arrow2" d="M0 439.617c0-28.475 10.889-55.218 31.026-75.356l295.295-295.432c22.256-22.256 58.339-22.256 80.55 0 22.279 22.256 22.233 58.499 0 80.777l-240.874 240.783h801.418c31.482 0.023 56.585 25.832 56.585 57.337 0 0.068 0 0.569 0 0.638 0 31.482-25.103 57.474-56.585 57.474h-801.441l240.829 240.646c22.279 22.279 22.279 58.408 0 80.663-22.256 22.301-58.339 22.279-80.595-0.023l-295.181-295.455c-20.16-20.092-31.026-46.904-31.026-75.379 0-2.802 0-13.873 0-16.675z" />
<glyph unicode="&#xe937;" glyph-name="search1" d="M157.972 500.646c0 166.781 135.202 301.982 301.983 301.982 166.78 0 301.978-135.201 301.978-301.982s-135.198-301.982-301.978-301.982c-166.781 0-301.983 135.202-301.983 301.982zM459.955 875.267c-206.899 0-374.622-167.723-374.622-374.621 0-206.895 167.723-374.618 374.622-374.618 97.003 0 185.391 36.868 251.925 97.353l164.783-164.783c14.187-14.182 37.18-14.182 51.366 0 14.182 14.182 14.182 37.18 0 51.362l-167.309 167.309c46.396 62.37 73.852 139.669 73.852 223.377 0 206.898-167.723 374.621-374.618 374.621z" />
<glyph unicode="&#xe938;" glyph-name="star" d="M561.448 906.899l115.494-234.021c8.031-16.276 23.56-27.554 41.524-30.16l258.264-37.53c45.241-6.579 63.29-62.158 30.566-94.048l-186.879-182.158c-12.987-12.666-18.925-30.929-15.849-48.808l44.108-257.218c7.732-45.048-39.559-79.395-80.015-58.142l-230.987 121.432c-16.063 8.437-35.265 8.437-51.328 0l-230.987-121.432c-40.456-21.275-87.747 13.094-80.015 58.142l44.108 257.218c3.076 17.878-2.862 36.141-15.849 48.808l-186.879 182.158c-32.724 31.912-14.674 87.491 30.566 94.048l258.264 37.53c17.964 2.606 33.493 13.884 41.524 30.16l115.494 234.021c20.207 40.99 78.648 40.99 98.876 0z" />
<glyph unicode="&#xe939;" glyph-name="star-1" d="M1011.836 525.179c11.032 10.754 14.926 26.536 10.168 41.186-4.762 14.65-17.188 25.128-32.434 27.342l-304.717 44.276c-0.236 0.034-0.444 0.184-0.552 0.402l-136.272 276.121c-6.818 13.814-20.626 22.398-36.028 22.398s-29.21-8.582-36.028-22.396l-136.272-276.121c-0.108-0.218-0.316-0.368-0.554-0.404l-304.719-44.278c-15.244-2.214-27.672-12.692-32.434-27.342-4.76-14.654-0.866-30.434 10.168-41.186l220.498-214.93c0.174-0.17 0.252-0.412 0.21-0.652l-52.052-303.485c-4.138-24.12 14.968-47.010 39.558-47.010 6.384 0 12.802 1.54 18.734 4.656l272.551 143.29c0.214 0.114 0.466 0.114 0.682-0.002l272.547-143.284c13.636-7.172 29.848-6 42.312 3.058 12.464 9.056 18.588 24.114 15.982 39.294l-52.052 303.487c-0.042 0.24 0.036 0.482 0.21 0.65l220.494 214.93zM752.257 302.927l52.050-303.487c0.056-0.318 0.078-0.448-0.292-0.718-0.368-0.266-0.486-0.208-0.774-0.056l-272.545 143.284c-11.706 6.158-25.688 6.158-37.394 0.002l-272.547-143.288c-0.286-0.152-0.404-0.21-0.772 0.056-0.368 0.27-0.348 0.4-0.292 0.72l52.050 303.487c2.238 13.036-2.082 26.33-11.554 35.562l-220.496 214.932c-0.232 0.226-0.328 0.318-0.186 0.754 0.142 0.434 0.274 0.452 0.594 0.5l304.717 44.278c13.086 1.902 24.396 10.116 30.25 21.976l136.272 276.121c0.142 0.29 0.202 0.41 0.66 0.41s0.518-0.12 0.66-0.41l136.272-276.129c5.854-11.858 17.162-20.076 30.248-21.976l304.717-44.276c0.32-0.048 0.452-0.066 0.594-0.5s0.044-0.528-0.186-0.754l-220.49-214.93c-9.474-9.232-13.794-22.526-11.556-35.558z" />
<glyph unicode="&#xe93a;" glyph-name="farmer" d="M282.211 378.141c-17.773-7.719-68.836-29.898-82.227-35.719l69.844-100.906-12.906-181.594c-1.805-25.383 18.273-47.086 43.906-47.086 22.867 0 42.172 17.688 43.82 40.852l14 197.024c0.711 9.984-2.008 19.914-7.703 28.141zM284.985 445.805l-147.235-63.961c-10.125-4.398-14.766-16.172-10.375-26.289 4.414-10.164 16.211-14.758 26.297-10.367l167.485 72.758zM264.899 878.985c-43.125 6.969-83.734-22.344-90.695-65.469-6.969-43.117 22.344-83.727 65.469-90.695s83.727 22.344 90.695 65.469-22.344 83.734-65.469 90.695zM417.391 463.906l-113.531 87.445-55.953 93.711 65.774-69.992 38.445-29.617 72.984-15.891 100.719 43.75c-4.703 5.008-10.906 8.695-18.117 10.266l-143.008 31.141-49.961 25.672c-1.039 24.836-19.383 46.344-44.867 50.461l-94.070 15.195c-29.125 4.711-56.563-15.086-61.266-44.227l-40.031-246.258c-3.516-21.648-3.969-43.695-1.336-65.477l13.984-115.774-82.149-157.133c-11.25-21.523-2.922-48.094 18.602-59.344 21.523-11.242 48.086-2.922 59.344 18.602l88.492 169.289c4.141 7.922 5.766 16.906 4.672 25.773l-11.805 95.422-2.273-0.984c-20.711-9-44.867 0.453-53.906 21.25-9.039 20.82 0.672 44.961 21.258 53.906l136.602 59.344-25.484 19.625c-3.992 3.656-11.508 6.75-14.891 16.766l-38.109 112.172 59.383-99.469c2.266-3.797 5.234-7.133 8.742-9.836l118.836-91.524c15.453-11.906 37.523-8.93 49.336 6.398 11.844 15.398 8.984 37.484-6.414 49.336zM680.016 548.5c10.031-23.102 36.938-33.953 60.328-23.789l35.516 15.43v-113.188c0-9.656 7.828-17.484 17.492-17.484h98.93c9.656 0 17.484 7.828 17.484 17.484v192.328c0 67.070-49.305 122.625-113.649 132.383-10.641 1.617-20.258-6.516-20.258-17.273l-106.508-46.266c-23.188-10.078-33.859-37.141-23.781-60.328 6.367-14.664 8.391-19.32 8.93-20.57-0.086 0.211-0.148 0.344 0.039-0.086 0.031-0.078 0.063-0.133 0.078-0.18s0.039-0.078 0.055-0.133h0.008c0.039-0.102 0.094-0.219 0.148-0.352l-244.196-106.086 21.883-16.852c4.602-3.539 8.531-7.633 11.797-12.094l226.438 98.367c2.266-5.195 6.883-15.828 9.266-21.313zM775.86 572.695l-47.414-20.602c-8.109-3.516-17.523 0.188-21.047 8.297-4.141 9.539-7.070 16.281-11.273 25.961 18.742 8.141 60.602 26.32 79.734 34.633zM681.251 660.735l94.609 41.102v-48.289c-18.055-7.852-72.352-31.438-91.633-39.813-3.367 7.742-5.672 13.055-11.273 25.953-3.516 8.094 0.203 17.531 8.297 21.047zM654.649 606.891c0-0.016 0.008-0.023 0.016-0.031-0.008 0.008-0.016 0.016-0.016 0.031zM1015.462 63.695l-170.36 175.336c-43.039 44.297-114.164 44.297-157.203 0l-170.367-175.336c-18.461-19.008-5-50.867 21.508-50.867h454.922c26.5 0 39.969 31.859 21.5 50.867z" />
<glyph unicode="&#xe93b;" glyph-name="sun-solid" d="M723 957.6c10-4.2 17.2-13.2 19.2-23.8l39.8-215.8 215.8-39.6c10.6-2 19.6-9.2 23.8-19.2s3-21.4-3.2-30.4l-124.6-180.8 124.6-180.6c6.2-9 7.4-20.4 3.2-30.4s-13.2-17.2-23.8-19.2l-215.8-39.8-39.8-215.8c-2-10.6-9.2-19.6-19.2-23.8s-21.4-3-30.4 3.2l-180.6 124.6-180.6-124.6c-9-6.2-20.4-7.4-30.4-3.2s-17.2 13.2-19.2 23.8l-39.8 215.8-215.8 39.8c-10.6 2-19.6 9.2-23.8 19.2s-3 21.4 3.2 30.4l124.6 180.6-124.6 180.6c-6.2 9-7.4 20.4-3.2 30.4s13.2 17.2 23.8 19.2l215.8 39.8 39.8 215.8c2 10.6 9.2 19.6 19.2 23.8s21.4 3 30.4-3.2l180.6-124.6 180.6 124.6c9 6.2 20.4 7.4 30.4 3.2zM320 448c0 106.039 85.961 192 192 192s192-85.961 192-192v0c0-106.039-85.961-192-192-192s-192 85.961-192 192v0zM768 448c0 141.385-114.615 256-256 256s-256-114.615-256-256v0c0-141.385 114.615-256 256-256s256 114.615 256 256v0z" />
<glyph unicode="&#xe93c;" glyph-name="check-solid" horiz-adv-x="896" d="M877.2 749.2c25-25 25-65.6 0-90.6l-512-512c-25-25-65.6-25-90.6 0l-256 256c-25 25-25 65.6 0 90.6s65.6 25 90.6 0l210.8-210.6 466.8 466.6c25 25 65.6 25 90.6 0z" />
<glyph unicode="&#xe93d;" glyph-name="help" d="M1024 267c0 149.258-100.57 279.664-242.391 318.961-8.914 207.758-180.695 374.039-390.609 374.039-215.602 0-391-175.398-391-391 0-70.266 18.703-138.68 54.219-198.742l-52.781-190.813 190.82 52.773c55.211-32.648 117.492-51.039 181.773-53.813 39.289-141.828 169.703-242.406 318.969-242.406 59.578 0 117.516 15.867 168.422 46.016l161.133-44.57-44.57 161.133c30.148 50.906 46.016 108.844 46.016 168.422zM201.727 297.094l-114.234-31.602 31.602 114.234-7.203 11.266c-33.945 53.109-51.891 114.664-51.891 178.008 0 182.516 148.484 331 331 331s331-148.484 331-331-148.484-331-331-331c-63.344 0-124.891 17.945-178.008 51.891zM936.508 23.492l-84.766 23.453-11.32-7.367c-43.883-28.508-94.867-43.578-147.422-43.578-117.313 0-220.398 75.852-256.922 184.617 179.641 20.711 322.594 163.664 343.313 343.313 108.758-36.531 184.609-139.617 184.609-256.93 0-52.555-15.070-103.539-43.578-147.422l-7.367-11.32zM361 418h60v-60h-60zM451 660c0-17.039-6.938-32.766-19.531-44.289l-70.469-64.5v-73.211h60v46.789l50.977 46.656c24.797 22.695 39.023 54.969 39.023 88.555 0 66.172-53.828 120-120 120s-120-53.828-120-120h60c0 33.086 26.914 60 60 60s60-26.914 60-60z" />
<glyph unicode="&#xe93e;" glyph-name="telephone-call" d="M961.12 236.992c-1.696 1.408-193.568 137.92-245.376 129.568-24.992-4.416-39.264-21.472-67.904-55.584-4.608-5.504-15.712-18.656-24.288-28.032-20.861 6.838-38.333 14.117-55.128 22.548l2.296-1.044c-88.522 43.761-158.511 113.75-201.126 199.715l-1.146 2.557c-7.387 14.499-14.666 31.971-20.69 50.018l-0.814 2.814c9.408 8.608 22.592 19.712 28.224 24.448 33.952 28.48 50.976 42.784 55.392 67.808 9.056 51.808-128.16 243.616-129.568 245.344-12.43 17.47-31.992 29.17-54.349 30.833l-0.243 0.015c-55.616 0-214.4-205.952-214.4-240.672 0-2.016 2.912-206.944 255.616-464 256.768-252.416 461.696-255.328 463.712-255.328 34.688 0 240.672 158.784 240.672 214.4-1.696 22.602-13.404 42.162-30.655 54.44l-0.225 0.152zM747.776 32.192c-27.776 2.368-199.936 25.056-414.976 236.288-212.256 216.096-234.368 388.544-236.576 415.264 43.536 67.721 93.299 126.182 149.84 177.283l0.752 0.669c1.28-1.28 2.976-3.2 5.152-5.696 41.597-56.154 79.734-119.817 111.441-187.107l2.927-6.909c-10.056-10.115-20.657-19.651-31.769-28.575l-0.743-0.577c-17.987-13.787-33.833-28.719-48.046-45.106l-0.338-0.398c-3.715-5.159-5.941-11.606-5.941-18.572 0-1.929 0.171-3.818 0.498-5.653l-0.029 0.194c7.513-32.052 18.123-60.231 31.839-86.533l-0.959 2.021c50.186-101.491 130.437-181.732 229.005-230.59l2.931-1.314c24.283-12.779 52.462-23.4 82.037-30.417l2.475-0.495c1.662-0.309 3.575-0.486 5.529-0.486 6.946 0 13.371 2.233 18.595 6.021l-0.092-0.064c16.843 14.609 31.828 30.518 45.099 47.81l0.565 0.766c10.048 11.968 23.456 27.936 28.544 32.448 74.347-34.585 138.153-72.771 197.49-116.656l-3.058 2.16c2.656-2.24 4.544-3.968 5.792-5.088-51.775-57.312-110.246-107.087-174.573-148.564l-3.411-2.060zM736 480h64c-0.164 141.319-114.681 255.836-255.984 256h-0.016v-64c105.995-0.109 191.891-86.005 192-191.99v-0.010zM896 480h64c-0.273 229.641-186.359 415.727-415.974 416h-0.026v-64c194.309-0.237 351.763-157.691 352-351.977v-0.023z" />
</font>
</defs>
</svg>
